<?xml version="1.0" standalone="no"?>
<!DOCTYPE svg PUBLIC "-//W3C//DTD SVG 1.1//EN" "http://www.w3.org/Graphics/SVG/1.1/DTD/svg11.dtd">
<svg xmlns="http://www.w3.org/2000/svg">
<metadata>Copyright (C) 2017 by original authors @ fontello.com</metadata>
<defs>
<font id="fontello" horiz-adv-x="1000" >
<font-face font-family="fontello" font-weight="400" font-stretch="normal" units-per-em="1000" ascent="850" descent="-150" />
<missing-glyph horiz-adv-x="1000" />
<glyph glyph-name="travel-08" unicode="&#xe800;" d="M1186 232h-73v152h20c26 0 49 22 49 49v188c0 89-72 161-162 161h-307c-90 0-162-72-162-161v-188c0-28 22-49 49-49h20v-153h-74c-35 0-64-33-64-75v-222c0-7 6-15 15-15h739c9 0 15 8 15 15v222c0 42-29 76-65 76z m-566-282h-107v134h107v-134z m0 165h-107v41c0 25 15 45 33 45h74v-86z m-20 300c-9 0-18 7-18 18v188c0 72 58 130 131 130h307c73 0 131-58 131-130v-188c0-11-8-18-18-18h-107v60c0 9-6 15-15 15h-77c-8 0-15-6-15-15v-60h-108v60c0 9-6 15-15 15h-77c-8 0-16-6-16-15v-60h-103z m397 44l0 0v-123h-46v123l46 0 0 0z m-215 0l0 0v-123h-46v123l46 0 0 0z m300-509h-431v434h52v-63c0-9 8-15 16-15h77c9 0 15 6 15 15v63h108v-63c0-9 7-15 15-15h77c9 0 15 6 15 15v63h56v-434z m138 0h-107v134h107v-134z m0 165h-107v86h73c19 0 34-20 34-45v-41z m-217 86c-9 6-20 12-30 15s-22 5-33 5h-149c-11 0-21-2-32-5-11-3-22-9-31-15-28-20-45-51-45-88v-69c0-8 8-16 16-16h335c8 0 16 8 16 16v69c0 37-19 69-47 88z m16-142h-303v54c0 43 34 77 77 77h149c43 0 77-34 77-77v-54z" horiz-adv-x="1714" />

<glyph glyph-name="travel-09" unicode="&#xe801;" d="M857 258c3 0 8 0 11 0 85 4 151 78 151 166 0 23-6 44-16 64l-132 257c-5 11-21 11-28 0l-132-257c-9-20-15-41-15-63v-6c0-89 72-161 161-161z m-131 166c0 17 5 34 13 49l118 231 119-231c7-15 12-32 12-49 0-71-54-131-122-135-77-3-140 57-140 130v5z m130-102c1 0 3 0 4 0 34 2 60 31 60 65 0 9-1 18-6 26l-43 86c-3 5-8 8-14 8s-11-3-14-8l-44-86c-5-8-6-17-6-26v-2c0-35 27-63 63-63z m-31 65c0 5 1 8 3 12l31 59 30-59c2-3 3-7 3-12-3-18-15-34-34-34h-1c-18 0-32 15-32 32v2z m338-126c2 0 3 0 5 0 34 1 60 30 60 64 0 10-2 19-6 26l-43 87c-3 4-8 7-14 7s-11-3-14-7l-45-87c-4-7-6-16-6-26v-1c0-36 28-63 63-63z m-30 64c0 5 1 8 3 13l30 58 31-58c2-3 3-8 3-13-3-18-15-34-34-34h-1c-19 0-33 16-33 33v1z m-585-64c2 0 3 0 5 0 33 1 60 30 60 64 0 10-2 19-7 26l-43 87c-3 4-7 7-13 7s-11-3-14-7l-45-87c-5-7-6-16-6-26v-1c0-36 28-63 63-63z m-31 64c0 5 2 8 3 13l31 58 31-58c1-3 3-8 3-13-3-18-16-34-34-34h-2c-18 0-32 16-32 33v1z m726-249l-89 20 89 20c17 5 33 14 42 29 9 16 12 33 9 50-6 29-34 50-64 50-5 0-10 0-14-1l-357-80-359 80c-4 1-9 1-14 1-30 0-57-21-63-50-7-36 14-71 50-79l89-20-89-20c-36-7-57-43-50-78 6-31 33-51 63-51 5 0 10 0 14 2l357 79 357-80c5-1 9-1 14-1 31 0 57 21 65 50 7 36-14 71-50 79z m-764 69c-19 5-31 23-26 42 3 15 18 28 34 28 3 0 4 0 7-2l294-66-158-35-151 33z m343-92l-34-8-294-66c-3 0-5-1-8-1-15 0-30 10-34 27-4 19 8 37 26 42l151 34 36 8 35 7 157 36 35 7 36 8 293 66c4 0 5 2 8 2 16 0 31-11 34-28 5-18-8-37-26-42l-152-34-36-7-35-8-157-35-35-8z m440-48c-3-18-23-30-42-26l-294 66 159 36 150-34c19-5 31-23 27-42z" horiz-adv-x="1714" />

<glyph glyph-name="travel-10" unicode="&#xe802;" d="M1273 775h-831c-8 0-16-8-16-16v-580c0-7 8-15 16-15h223c8 0 15 8 15 15v219c0 97 80 177 177 177s177-80 177-177v-219c0-7 8-15 16-15h223c7 0 15 8 15 15v580c0 9-8 16-15 16z m-16-580h-192v203c0 114-94 207-208 207s-207-94-207-207v-203h-193v549h800v-549z m-112-100c0 9-6 15-15 15h-688c-9 0-16-6-16-15 0-10 7-16 16-16h688c7 0 15 6 15 16z m128-62h-497c-10 0-16-6-16-15 0-10 6-16 16-16h497c9 0 15 6 15 16 0 9-6 15-15 15z m-308-77h-497c-9 0-15-6-15-15 0-10 6-16 15-16h497c9 0 15 6 15 16 0 9-6 15-15 15z" horiz-adv-x="1714" />

<glyph glyph-name="travel-11" unicode="&#xe803;" d="M1220 101h-83c-31 0-54-23-57-54h-207v75h189c124 0 228 102 228 228s-102 226-228 226h-189v77h207c2-29 26-54 57-54h83c31 0 57 26 57 57v25c0 30-24 57-57 57h-83c-31 0-54-23-57-54h-461c-9 0-16-8-16-16 0-9 7-15 16-15h223v-77h-189c-125 0-227-101-227-226s102-228 227-228h189v-75h-223c-9 0-16-6-16-15 0-10 7-16 16-16h461c2-29 26-54 57-54h83c31 0 57 25 57 57v25c0 31-26 57-57 57z m-109 580c0 14 11 26 26 26h83c14 0 26-12 26-26v-25c0-14-12-26-26-26h-83c-14 0-26 12-26 26v25z m-458-528c-108 0-196 88-196 197 0 108 88 195 196 195h407c108 0 197-87 197-195 0-108-87-197-197-197h-407z m593-134c0-14-12-26-26-26h-83c-14 0-26 13-26 26v25c0 14 11 26 26 26h83c14 0 26-11 26-26v-25z m-66 331c0 66-54 118-118 118h-409c-67 0-119-53-119-118 0-66 54-120 119-120h407c66 0 120 54 120 120z m-415-89h-112c-50 0-88 40-88 89 0 49 40 88 88 88h112v-177z m77 0h-46v177h46v-177z m77 0h-46v177h46v-177z m31 177h112c49 0 89-40 89-88s-41-89-89-89h-112v177z" horiz-adv-x="1714" />

<glyph glyph-name="travel-12" unicode="&#xe804;" d="M451 622h831c9 0 15 8 15 16v124c0 8-6 16-15 16h-831c-9 0-15-6-15-16v-124c0-8 6-16 15-16z m739 125h76v-94h-76v94z m-154 0h123v-94h-123v94z m-154 0h123v-94h-123v94z m-154 0h123v-94h-123v94z m-154 0h123v-94h-123v94z m-108 0h77v-94h-77v94z m242-279h-123c-9 0-15-7-15-15v-71c0-9 6-15 15-15h123c8 0 15 6 15 15v71c0 8-7 15-15 15z m-15-70h-93v40h93v-40z m589-96h-46v276c0 9-6 15-16 15h-707c-10 0-16-6-16-15v-274h-46c-9 0-15-6-15-16 0-9 6-15 15-15h46v-334c0-9 6-15 16-15h266c9 0 15 6 15 15v348c0 42 38 60 74 60 20 0 38-6 52-15 14-11 22-26 22-45v-349c0-10 6-16 15-16h266c10 0 16 6 16 16v334h46c9 0 15 6 15 15-3 9-9 15-18 15z m-582-349h-107v149h107v-149z m65 0h-2-32v165c0 9-8 15-15 15h-139c-9 0-15-6-15-15v-165h-32v319h235v-319z m174 400v1c-20 15-46 24-73 24-26 0-53-8-73-25v86h146v-85c0 0 1 0 1-1h-1z m17 117h-177c-10 0-16-6-16-15v-153h-235v260h677v-260h-234v153c0 9-6 15-15 15z m186-517h-108v149h108v-149z m64 0h-1-32v165c0 9-8 15-16 15h-138c-9 0-16-6-16-15v-165h-32v319h235v-319z m-267 400h1c0 0-1 1-1 1v-1z m87 14h124c7 0 15 6 15 15v71c0 8-6 15-15 15h-124c-9 0-15-7-15-15v-71c0-9 6-15 15-15z m16 71h92v-40h-92v40z" horiz-adv-x="1714" />

<glyph glyph-name="travel-13" unicode="&#xe805;" d="M1270 296h-67v225h37c6 0 11 3 14 9 3 5 2 11-1 15l-97 131c-3 5-8 6-13 6s-9-3-12-6l-97-131c-3-4-4-10-1-15s7-9 13-9h37v-225h-52v42c0 7-6 15-15 15h-51v235c0 10-8 16-15 16h-82v74l129 34h2c1 0 1 0 3 1 1 0 3 2 4 3l2 2c2 2 2 3 3 6 0 2 0 3 0 3 0 2 0 3 0 3-3 8-8 12-14 12l-138 37c-2 0-3 0-5 0s-1 0-3 0-1 0-3-1c0 0-2 0-2-2-1 0-1-1-1-1-2 0-2-2-3-4l-2-1c0 0 0-2-1-2 0-1 0-1-2-3 0-1 0-1 0-3v-158h-80c-7 0-15-6-15-16v-237h-51c-9 0-15-7-15-15v-40h-53v225h37c6 0 11 3 14 9 3 5 2 11-1 15l-97 131c-6 8-19 8-25 0l-97-131c-3-4-5-10-2-15 3-5 8-9 14-9h37v-225h-64c-8 0-16-8-16-15v-348c0-9 8-15 16-15h830c8 0 16 6 16 15v348c0 7-6 15-15 15z m-400 448l64-17-64-17v34z m-371-192l66 90 66-90h-132z m95-31v-225h-57v225h57z m82-573h-222v317h222v-317z m97 625h161v-222h-161v222z m141-625h-121v191c0 23 18 42 41 42h39c23 0 41-18 41-42v-191h2-2z m88 0h-56v191c0 40-32 73-72 73h-40c-40 0-72-33-72-73v-190h-56v372h296v-373z m75 604l66 90 66-90h-132z m96-31v-225h-57v225h57z m81-573l0 0h-221v317h221v-317z m-168 88h113c9 0 15 6 15 15v113c0 9-6 15-15 15h-113c-9 0-15-6-15-15v-113c0-9 6-15 15-15z m16 112h81v-81h-81v81z m-592-112h112c9 0 15 6 15 15v113c0 9-7 15-15 15h-112c-10 0-16-6-16-15v-113c0-9 6-15 16-15z m15 112h81v-81h-81v81z" horiz-adv-x="1714" />

<glyph glyph-name="travel-14" unicode="&#xe806;" d="M933 508c0-9 6-15 15-15h128c9 0 15 6 15 15 0 10-6 16-15 16h-128c-9 0-15-6-15-16z m143-46h-176c-9 0-15-6-15-15s6-15 15-15h176c9 0 15 6 15 15s-6 15-15 15z m0-61h-176c-9 0-15-6-15-16s6-15 15-15h176c9 0 15 6 15 15s-6 16-15 16z m0-62h-233c-9 0-15-6-15-15 0-9 6-15 15-15h233c9 0 15 6 15 15 0 9-6 15-15 15z m0-61h-233c-9 0-15-6-15-16 0-9 6-15 15-15h233c9 0 15 6 15 15 0 10-6 16-15 16z m0-62h-270c-9 0-15-6-15-15 0-10 6-16 15-16h270c9 0 15 6 15 16 0 9-6 15-15 15z m0-61h-270c-9 0-15-6-15-16 0-9 6-15 15-15h270c9 0 15 6 15 15 0 9-6 16-15 16z m0-62h-270c-9 0-15-6-15-15 0-10 6-16 15-16h270c9 0 15 6 15 16 0 9-6 15-15 15z m0-61h-233c-9 0-15-6-15-16 0-9 6-15 15-15h233c9 0 15 6 15 15 0 9-6 16-15 16z m181-77h-107v558h107c9 0 16 6 16 15 0 10-7 16-16 16h-107v226c0 8-7 15-16 15-9 0-15-7-15-15v-43c-60-29-114-62-160-97h-194c-9 0-15-6-15-15 0-10 6-16 15-16h157c-179-155-234-366-177-644h-319c-9 0-15-8-15-16 0-9 6-15 15-15h831c9 0 16 6 16 15 0 8-8 16-16 16z m-138-2h-342c-61 289-1 494 191 645h151v-645z m0 675h-108c32 23 68 45 108 63v-63z" horiz-adv-x="1714" />

<glyph glyph-name="travel-15" unicode="&#xe807;" d="M1274 205c-98 14-154 42-163 80-1 5-5 8-8 11v108c59 9 116 20 173 35 7 2 12 9 12 16 0 7-6 13-14 13-212 25-237 53-240 60-1 7-8 11-15 11h-40v71c38 11 77 25 115 45 6 3 9 9 8 15-2 6-6 12-12 14l-8 1c-49 11-151 34-156 82-1 8-7 14-15 14h-112c-8 0-14-6-16-14-6-48-107-71-155-82l-8-1c-6-2-10-6-12-14 0-6 3-12 8-15 38-20 77-34 115-45v-71h-40c-6 0-12-4-15-10-3-8-28-36-240-60-8-2-13-6-14-14 0-8 4-14 12-16 57-14 116-26 174-35v-108c-5-1-8-4-8-10-9-39-64-66-163-80-7-2-12-6-14-14 0-8 3-14 11-16 29-10 60-18 89-26v-214c0-9 7-15 16-15h631c9 0 15 6 15 15v212c29 8 60 17 89 27 6 1 11 9 11 15 3 9-3 14-11 15z m-601 459c55 14 123 38 140 86h87c16-48 85-72 140-86-121-52-244-52-367 0z m277-60v-65h-77v56c26 1 50 4 77 9z m-108-9v-56h-77v65c26-6 51-9 77-9z m-314-145c122 18 162 40 175 58h308c14-20 54-40 175-58-220-45-438-45-658 0z m545-51v-103h-62v96c20 3 42 6 62 7z m-93-9v-94h-246v94c42-3 82-5 123-5s82 2 123 5z m-277 3v-95h-61v103c20-3 41-6 61-8z m0-443h-146v191c49-13 97-20 146-26v-165z m200 0h-92v35c0 26 20 46 46 46 26 0 46-20 46-46v-35z m77 0h-46v35c0 43-35 77-77 77-43 0-77-34-77-77v-35h-46v162c42-5 82-6 123-6s82 1 123 6v-162z m177 0h-146v165c49 6 97 15 146 26v-191z m-652 237c69 17 109 43 123 80h457c15-37 55-63 123-80-232-68-469-68-703 0z" horiz-adv-x="1714" />

<glyph glyph-name="travel-16" unicode="&#xe808;" d="M1293 564l-148 211c-3 4-9 6-14 6-6 0-11-5-12-10l-162-363c-3 0-4 0-7 0-5 0-10 0-13-1v358c0 8-7 16-15 16s-16-8-16-16v-372c-3-2-4-5-6-6-9-8-15-14-30-14-2 0-3 0-5 0l-172 172 40 11c6 2 9 6 10 11l16 58 58 16c6 1 11 7 13 14 0 7-5 12-11 15l-365 111c-6 1-11 0-15-5-5-3-5-9-3-15l112-363c2-7 8-11 15-11s13 4 16 11l15 58 59 15c4 2 9 6 10 11l11 42 114-114c-25 0-37-13-48-22-9-8-15-14-30-14-13 0-22 8-33 17s-23 20-41 20c-6 0-14-1-20-5-2 0-3-1-5-3l-8-3c-1-1-3-1-3-3-30-49-47-107-47-166 0-172 140-312 312-312 172 0 312 140 312 312 0 59-17 117-47 166l-2 2-5 5c-3 3-7 4-12 4-26 0-40-12-51-21-9-8-15-14-30-14-14 0-22 6-31 14-5 3-8 7-14 10l80 176c23-11 43-16 61-16 11 0 22 2 31 5 25 9 45 28 60 57l51-74c5-8 14-9 22-5 6 7 9 18 3 24z m-634 4c0 0-2 0-2-1 0 0-1 0-1-2 0 0 0 0-2-1 0 0-2 0-2-2 0-2-1-2-1-3 0 0 0-2-2-2-1 0 0-1 0-1v-2l-15-57-59-15c-6-2-9-6-10-11l-5-14-87 285 284-87-14-3c-6-2-9-6-10-11l-16-58-58-15z m371-224c26 0 40 12 50 22 8 6 14 12 23 14 28-45 42-96 42-148 0-156-126-282-282-282s-281 126-281 282c0 52 14 103 41 148 10 3 16-2 28-13 12-11 28-24 52-24 26 0 40 12 51 21 9 8 15 14 31 14 15 0 21-6 30-14 11-9 25-21 51-21 26 0 40 12 51 21 9 8 15 14 31 14 15 0 21-6 30-14 13-9 27-20 52-20z m116 248c-18-6-41-3-69 9l60 132 60-86c-15-29-31-48-51-55z m-296-545c0-9 6-15 15-15 109 0 200 89 200 200 0 9-6 15-15 15-10 0-16-6-16-15 0-94-77-170-169-170-9 0-15-6-15-15z" horiz-adv-x="1714" />

<glyph glyph-name="travel-17" unicode="&#xe809;" d="M1020 24c10 5 19 9 28 14l-17 26c-8-5-17-9-25-14l14-26z m-178-40c11 0 20 0 31 0l-2 31c-9 0-18 0-28 0h-1v-31z m-136 640l-13 28c-10-5-17-10-27-16l17-26c8 5 17 9 23 14z m314 28l-14-28c10-5 17-9 25-14l15 26c-7 6-16 11-26 16z m-147 40c-11 0-20 0-31 0l1-31c10 0 19 0 28 0l2 31z m-339-367c0 10 0 19 0 28h-31c0-11 0-22 0-31l31 3z m132-286c8-6 17-10 27-15l15 28c-9 4-17 9-25 14l-17-27z m-107 488c-6-8-11-17-16-26l28-14c5 8 9 17 14 23l-26 17z m-16-354c5-9 10-17 16-26l26 15c-5 8-10 17-14 25l-28-14z m613-26c4 8 10 17 15 28l-28 14c-4-10-9-17-14-25l27-17z m24 205c0-10 0-19 0-30h31c0 11 0 20 0 31l-31-1z m-24 176l-26-17c4-7 9-16 13-24l28 15c-5 10-9 17-15 26z m-299 240c-237 0-431-193-431-430 0-102 36-199 100-276l-66-66c-4-4-6-11-3-17 2-6 8-10 14-10h152c8 0 16 7 16 15v152c0 6-3 13-10 14-6 3-12 2-17-3l-62-63c-59 71-91 162-91 254 0 220 180 400 400 400s400-180 400-400-180-400-400-400c-8 0-16-8-16-16 0-7 8-15 16-15 237 0 431 194 431 431s-196 430-433 430z m-249-669v-100h-100l100 100z m234 239c0-10 6-16 15-16h216c9 0 15 5 15 14 0 10-6 16-15 16h-200v253c0 10-7 16-16 16s-15-6-15-16v-267z" horiz-adv-x="1714" />

<glyph glyph-name="travel-19" unicode="&#xe80a;" d="M1242-1l-69 423c-2 8-8 13-16 13h-38l58 58c5 5 6 11 3 17s-7 9-14 9h-35c-9 126-135 188-258 193v38h61c8 0 16 8 16 15 0 8-8 16-16 16h-154c-7 0-15-8-15-16 0-7 8-15 15-15h62v-38c-123-5-249-66-259-193h-35c-6 0-12-4-14-9-3-6-1-12 3-17l59-58h-39c-7 0-14-5-15-13l-69-423c0-4 0-9 3-12 3-3 7-6 12-6 25 0 35-12 51-26 15-16 34-34 67-36h2 3c37 0 57 20 72 36 16 15 26 26 51 26 25 0 35-12 51-26 15-16 35-36 72-36s57 20 72 36c16 15 26 26 51 26s35-12 51-26c15-16 35-36 72-36s57 20 72 36c16 15 26 26 51 26 5 0 9 1 12 6 4 3 5 8 4 12z m-385 682c113 0 234-51 243-162h-486c9 111 131 162 243 162z m-272-193h545l-54-53h-439l-52 53z m569-512c-12-12-21-22-37-25l-29 220c-2 8-9 14-17 14-8-1-14-9-14-17l28-215c-14 5-23 12-33 23-15 15-35 35-72 35-37 0-57-20-72-35-11-11-20-20-36-25v219c0 9-6 15-15 15-8 0-15-6-15-15v-217c-14 5-25 14-36 25-15 15-35 35-72 35s-57-20-72-35c-11-11-22-20-36-25l28 215c2 8-5 16-14 17-8 2-15-4-17-14l-29-220c-14 5-23 14-36 25-13 12-29 29-53 34l64 394h576l63-394c-25-5-42-20-54-34z" horiz-adv-x="1714" />

<glyph glyph-name="travel-20" unicode="&#xe80b;" d="M857 781c-237 0-431-194-431-431s194-431 431-431 431 194 431 431-194 431-431 431z m0-831c-220 0-400 180-400 400s180 400 400 400 400-180 400-400-180-400-400-400z m0 769c-203 0-369-166-369-369s166-369 369-369 369 166 369 369-166 369-369 369z m0-707c-186 0-338 152-338 338s152 338 338 338 339-152 339-338-153-338-339-338z m196 553l-288-114h-2c0 0-1 0-1-1 0 0-2 0-2-2-2-1-2-1-3-3-2-1-2-3-2-3v-1l-114-288c-1-6-1-12 4-17 3-3 7-5 10-5 2 0 5 0 6 2l288 114h2c3 1 4 3 6 4 0 0 1 2 1 4v1l114 288c3 7 2 14-3 18-4 5-10 6-16 3z m-370-389l93 234 27-28c-14-23-10-54 10-74 12-12 27-18 43-18 10 0 21 3 30 9l28-27-231-96z m145 182c2 4 5 10 8 14 4 4 9 6 14 7 3 2 4 2 7 2 8 0 16-3 22-9s9-14 9-22c0-3 0-5-2-8-1-4-4-10-7-14-5-4-9-6-14-7-11-3-22 0-29 7-8 8-11 19-8 30z m111-68l-29 29c6 10 9 20 9 31 0 17-6 32-19 43-12 12-27 18-43 18-10 0-21-3-30-9l-28 28 234 92-94-232z" horiz-adv-x="1714" />

<glyph glyph-name="travel-21" unicode="&#xe80c;" d="M1282 661c-3 3-8 4-11 4h-205l-7 66c0 8-6 13-14 14l-329 36c-8 1-16-5-17-14-2-9 4-16 14-17l318-34 6-51h-220c-4 0-7-1-11-4s-4-8-4-13l12-137c-31 16-66 22-101 22-107 0-214-69-222-203-38-2-68-32-68-71v-23c0-38 30-69 68-71v-15c0-40 32-71 71-71h292l14-146c0-8 8-14 15-14h320c8 0 16 6 16 14l66 716c1 4 0 9-3 12z m-200-408c-3 2-6 5-11 8-9 9-21 20-45 20-9 0-16-2-24-5-6 31-34 55-66 57-2 25-6 46-14 66 3-1 4-4 8-6 9-8 21-20 44-20 23 0 36 11 45 20 7 8 12 11 23 11 11 0 15-5 24-13l16-138z m3-34l12-117c-4-4-9-6-17-6-10 0-15 5-23 11-7 8-20 20-43 20s-35-11-43-20c-8-8-12-11-23-11-9 0-14 3-18 8 10 12 18 29 18 48v17c32 6 57 35 57 69v1c8 6 12 11 23 11s15-5 23-11c6-7 17-17 34-20z m-46 416l23-205c-6 3-12 5-20 5-23 0-36-11-45-20-7-8-12-11-23-11s-15 5-23 11c-9 9-21 20-45 20h-1c-15 24-34 44-57 60l-14 140h205z m-325-131c36 0 72-9 105-28 6-3 11-6 17-10 6-5 12-10 17-14 29-28 49-68 52-120h-382c7 118 102 172 191 172z m-218-306c-23 0-40 18-40 40v23c0 23 18 40 40 40h437c21 0 40-19 40-40v-23c0-22-19-40-40-40h-437z m378-88h-311c-21 0-40 18-40 40v15h394v-15c-1-18-15-34-34-38-3 0-6-2-9-2z m25-158v-2l-13 131c7 1 11 3 17 4 10-7 22-20 43-20 24 0 36 11 45 20 8 8 12 11 23 11s16-5 23-11c9-7 22-20 45-20 8 0 15 2 20 5l12-118h-215z m291-2h-45l-15 138c4 5 9 7 16 7 11 0 16-5 24-11 7-6 15-14 30-19l-10-115z m13 148c-4 1-7 4-12 9-9 8-22 20-43 20-8 0-15-2-22-5l-10 100c10 5 17 11 23 16 7 7 12 10 23 10 10 0 15-4 23-10 7-6 15-14 29-19l-11-121z m14 154c-4 1-7 4-12 9-9 8-22 20-45 20-23 0-35-11-44-20-2-2-5-3-6-5l-11 117c3 0 6-1 11-1 23 0 35 10 44 20 8 7 12 10 23 10 11 0 16-4 23-10 6-6 16-14 30-17l-13-123z m16 155c-3 2-7 5-11 9-9 8-22 20-45 20s-35-10-44-20c-8-7-13-10-23-10-7 0-11 1-14 3l-26 226h183l-20-228z" horiz-adv-x="1714" />

<glyph glyph-name="travel-22" unicode="&#xe80d;" d="M1283 456l-52 209c-2 5-5 8-8 10l-32 17c-3 1-6 1-11 1-7-1-15-3-23-6l-26 48c-4 9-14 11-21 8-8-5-11-14-6-22l23-43c-91-34-154-98-193-195h-244c-19 0-36-5-50-13-61 22-132 0-170-54l-19-26c-32-44-37-103-14-150l19-39c3-5 7-9 14-9 6 0 10 3 14 9l54 117c10 23 27 42 50 54v-357c0-9 8-15 16-15h78c8 0 15 6 15 15v123c0 58 48 108 108 108h117c58 0 108-48 108-108v-123c0-9 7-15 15-15h78c8 0 16 6 16 15v460l70-73c6-6 14-6 20-1l51 38c3 5 5 11 3 17z m-541-4h144v-103h-26v63c0 7-7 15-15 15s-15-8-15-15v-63h-31v63c0 7-8 15-15 15s-16-8-16-15v-63h-26v103z m-151-45l-8-3c-32-15-58-42-73-74l-40-88-5 10c-19 40-14 86 11 120l18 26c28 37 72 55 117 47-9-12-15-24-20-38z m629 26l-66 68c-4 4-12 7-20 7-15 0-28-12-28-27v-451h-47v108c0 75-62 138-139 138h-117c-77 0-138-61-138-138v-108h-46v351c0 40 32 70 71 70h21v-118c0-9 6-15 16-15h175c8 0 15 6 15 15v118h28c6 0 12 5 14 11 40 109 112 176 221 200l20-11 50-192-30-26z" horiz-adv-x="1714" />

<glyph glyph-name="travel-23" unicode="&#xe80e;" d="M1220 401c-30 0-57-16-64-36h-43c0 13-3 23-5 36-2 10-5 21-8 32-10 32-27 62-50 86l30 31c5-3 11-3 17-3 19 0 37 9 53 24 27 28 32 65 12 84-8 7-19 12-31 12-18 0-37-9-52-25-22-21-29-51-22-71l-31-30c0 0 0 0-1 0-26 23-55 40-88 50-11 4-21 7-31 8-10 3-23 3-35 5v43c20 9 35 34 35 64 0 39-21 68-50 68-28 0-51-29-51-68 0-30 15-56 35-64v-43c-12 0-23-2-35-5-11-1-22-4-31-8-32-10-61-27-86-50 0 0 0 0-1 0l-31 30c9 20 2 50-22 71-15 16-35 25-52 25-12 0-23-5-31-12-10-11-14-27-10-44 3-15 10-29 23-41 15-15 35-25 52-25 6 0 12 2 18 3l31-30c-23-27-40-54-51-87-3-10-6-21-9-32s-3-23-5-35h-43c-9 20-34 35-64 35-39 0-68-21-68-51s29-50 68-50c30 0 57 14 64 35h43c0-12 2-23 5-34 1-11 5-21 9-32 11-32 28-62 49-86 0 0 0 0 2-2l-31-31c-6 3-10 3-18 3-17 0-37-9-52-24-13-12-20-26-23-42-3-17 0-32 10-43 8-7 19-12 31-12 17 0 37 9 52 25 22 21 30 50 22 70l31 31c0 0 0 0 1 0 25-23 54-38 86-51 11-3 22-6 33-9 10-2 23-3 34-5v-43c-20-9-36-34-36-64 0-39 22-68 51-68 28 0 51 29 51 68 0 30-16 57-36 64v43c13 2 23 2 34 5 11 2 22 5 33 9 32 11 61 28 86 51l30-31c-7-20 0-49 22-70 15-16 35-25 52-25 13 0 23 5 31 12 20 20 14 57-12 83-16 16-36 25-53 25-6 0-12-2-17-3l-31 31c0 0 2 0 2 1 23 26 38 56 49 86 3 11 6 22 10 33 1 10 3 23 4 34h43c10-20 34-36 65-36 38 0 68 22 68 51s-28 54-67 54z m-120 220c10 9 22 15 31 15 3 0 6 0 9-3 6-6 3-25-12-40-9-9-22-15-31-15-3 0-6 0-9 3-8 6-3 24 12 40z m-474-40c-3-3-6-3-9-3-9 0-21 6-31 15-7 8-13 17-15 26 0 3-1 11 3 14 3 3 6 3 9 3 10 0 22-6 31-15 16-16 19-34 12-40z m-132-251c-21 0-37 11-37 20s16 20 37 20c22 0 37-11 37-20 0-9-15-20-37-20z m120-251c-9-9-21-15-31-15-3 0-6 0-9 3-4 5-3 12-3 14 2 9 8 18 15 26 10 9 22 15 31 15 3 0 6 0 9-3 8-6 4-24-12-40z m474 40c3 3 6 3 9 3 9 0 22-6 31-15 15-15 18-34 12-40-3-3-6-3-9-3-9 0-22 6-31 15-15 16-20 34-12 40z m-215 453c9 1 20 0 29-2 9-2 18-5 28-8 27-9 53-24 75-43l-19-18c-20 17-41 29-66 37-7 3-17 5-24 6-8 2-16 3-23 3v25z m0-54c6 0 12-2 18-3 8-2 14-3 20-6 20-5 38-16 54-30l-22-21c-20 15-44 26-70 29v31z m0-62c18-3 35-9 49-20 8-6 15-14 21-21 11-14 19-31 20-50 2-4 2-10 2-15s0-11-2-15c-3-19-9-36-20-50-6-7-13-15-21-21-14-11-31-19-49-20-5-2-11-2-16-2s-11 0-15 2c-19 3-36 9-49 20-8 6-16 14-22 21-11 14-18 31-20 50-2 4-2 10-2 15s0 11 2 15c3 19 9 36 20 50 6 7 14 15 22 21 13 11 30 19 49 20 4 2 11 2 15 2s11 0 16-2z m121-121h31c0-6-2-13-3-17-2-8-3-14-6-22-6-20-17-38-31-54l-20 22c15 20 26 44 29 71z m-152-122v-31c-6 0-12 2-17 3-8 2-14 3-22 6-20 5-38 16-54 30l22 21c20-15 45-26 71-29z m-122 152h-30c0 6 1 13 3 19 1 7 3 14 6 21 6 20 17 37 30 54l20-23c-15-20-26-44-29-71z m117 348c0 22 11 37 20 37 9 0 20-15 20-37 0-22-11-37-20-37-9 0-20 16-20 37z m-52-151c9 3 18 6 28 8 9 2 18 3 29 5v-86c-26-3-51-14-71-30l-29 30-6 6-26 26c23 18 47 32 75 41z m-148-167c2 9 5 18 8 27 9 28 23 54 43 76l18-19c-17-20-29-41-37-66-3-7-4-17-6-24-1-8-3-16-3-23h-26c0 9 2 19 3 29z m8-117c-3 9-6 18-8 27-1 10-3 19-3 28h86c3-26 14-51 30-71l-62-60c-20 22-34 48-43 76z m169-148c-9 2-20 5-29 8-28 9-54 24-75 43l18 18c20-17 42-29 66-37 8-3 17-4 26-6 8-1 15-3 23-3v-25c-10-1-20-1-29 2z m63-143c0-22-11-37-20-37s-20 15-20 37c0 22 11 37 20 37 9 0 20-16 20-37z m53 151c-10-3-19-6-30-8-9-2-18-3-29-3v86c26 3 51 14 71 29l61-61c-20-20-46-34-73-43z m147 169c-1-9-4-18-7-28-10-27-25-54-44-75l-18 18c17 20 29 42 37 66 3 8 5 17 6 25 2 8 3 15 3 23h25c1-11 1-20-2-29z m-83 58l0 0c-3 26-14 51-29 71l61 62c20-22 34-48 44-76 3-9 6-18 7-27 2-10 3-20 5-30h-88z m226-35c-20 0-37 9-37 18 2 10 17 19 37 19 22 0 37-11 37-20 0-6-15-17-37-17z" horiz-adv-x="1714" />

<glyph glyph-name="travel-24" unicode="&#xe80f;" d="M802 578c20 18 38 18 58 0 6-6 16-6 22 0 20 18 38 18 58 0 3-3 8-5 11-5s8 2 8 5c6 6 6 15 0 21-28 28-60 31-90 10-29 20-60 18-89-10-6-6-6-15 0-21 6-6 16-6 22 0z m201 124c20 19 39 19 59 0 6-6 15-6 21 0 20 19 39 19 59 0 3-3 7-4 10-4 5 0 10 1 10 4 6 6 6 16 0 22-30 28-62 31-91 9-29 20-60 19-89-9-6-6-6-15 0-22s15-6 21 0z m245-380l-234 194c-3 3-6 3-9 3h-489c-43 0-80-35-80-81v-311c0-45 35-82 80-82h17c7-52 53-94 109-94s101 40 109 94h417c69 0 126 59 126 130v46c2 40-15 77-46 101z m-526-260c0-4 0-10-2-15-7-35-40-63-78-63s-71 28-79 63c-1 5-1 11-1 15v2c0 5 0 9 1 14 7 37 40 66 79 66 40 0 72-29 78-66 2-5 2-9 2-14 0 0 0-2 0-2z m448 16h-419c-6 55-54 97-109 97-57 0-103-43-109-97h-17c-28 0-50 23-50 50v311c0 28 22 51 50 51h484l230-191c23-18 35-46 35-77v-46h0c0-54-43-98-95-98z m-273 372h-107c-10 0-16-6-16-15v-305c0-9 6-15 16-15h107c9 0 16 6 16 15v305c0 9-7 15-16 15z m-15-303h-77v272h77v-272z m-154 303h-162c-9 0-15-6-15-15v-183c0-10 6-16 15-16h162c9 0 15 6 15 16v183c0 9-6 15-15 15z m-15-182h-131v151h131v-151z m367 120h-120c-9 0-15-6-15-15v-122c0-9 6-15 15-15h120c8 0 16 6 16 15v122c0 9-8 15-16 15z m-15-120h-89v90h89v-90z m163-250h-435c-8 0-16-8-16-16 0-9 8-15 16-15h435c9 0 15 6 15 15 0 8-6 16-15 16z" horiz-adv-x="1714" />

<glyph glyph-name="travel-25" unicode="&#xe810;" d="M1148 465h-8c0 5 0 10 0 14 0 83-64 151-146 154-12 71-74 125-148 125-70 0-130-49-146-117-87 0-158-71-158-158 0-7 0-13 2-19-8-1-14-8-14-15v-77c0-8 6-16 15-16h32v-155c0-9 8-15 16-15h77l163-282c3-5 7-8 14-8 6 0 10 3 14 8l162 281h77c8 0 16 6 16 16v157h32c8 0 15 7 15 15v77c0 9-7 15-15 15z m-162 139c68 0 125-55 125-125 0-4 0-9 0-14h-246c0 3 0 5 0 8 0 2 0 2 0 3v5c0 21 5 40 14 58 6 11 12 20 20 28 3 3 6 6 7 8 7 4 13 9 19 13s14 8 21 10c13 4 25 6 37 6 0 0 2 0 3 0z m-140 124c57 0 105-40 117-95h-1c-3 0-5-2-8-2-4-1-8-1-12-3-5-1-9-3-14-4-5-2-9-5-14-6-5-2-9-5-12-8l-2-2c-3-1-5-3-8-4-14-11-26-25-37-39-1-1-3-4-4-6-2-1-3-4-3-6-2-1-2-4-3-6-3 6-6 13-10 17-1 3-3 5-4 8 0 1-2 1-2 3-3 5-6 9-9 12s-5 5-8 8l-1 1-2 2c0 0-2 2-3 3-2 2-3 3-5 5-12 10-26 18-41 24-3 2-5 2-8 3-3 2-6 3-11 3-3 2-6 2-9 2 13 54 61 90 114 90z m-146-116c3 0 8 0 13 0 64-6 115-62 115-128 0-3 0-5 0-8s0-6-2-9h-252c-1 5-1 11-1 17 0 71 57 128 127 128z m-92-394v140h74l-71-140h-3z m38 0l71 140h62l-71-140h-62z m157 0h-61l70 140h62l-71-140z m105 140h62l-71-140h-62l71 140z m-62-414l-141 243h283l-142-243z m148 274h-61l70 140h62l-71-140z m91 0h-55l55 110v-110z m46 170h-571v47h571v-47h2-2z" horiz-adv-x="1714" />

<glyph glyph-name="travel-26" unicode="&#xe811;" d="M1180 781h-646c-9 0-15-8-15-16v-830c0-8 6-16 15-16h646c8 0 16 8 16 16v830c0 8-8 16-16 16z m-15-831h-615v800h615v-800z m-568 112c2-1 2-1 3-3 2-1 3-1 5-1 1 0 1 0 3 0h498c2 0 5 0 6 1 6 3 10 8 10 14v619c0 7-6 15-16 15h-498c-9 0-15-8-15-15v-619c0-1 0-1 0-3 0-1 0-1 1-3 0-2 2-3 3-5z m496 26h-2-468v96c8-2 14-5 20-8 11-6 25-12 50-12 24 0 37 6 47 12 10 5 17 10 34 10s25-5 36-10c10-6 24-12 49-12 24 0 37 6 47 12 10 5 17 10 36 10 18 0 24-5 34-10 10-6 24-12 49-12 25 0 37 6 48 12 6 3 12 6 20 8v-96z m-470 588h468v-349c-14-2-23-6-31-9-9 101-94 177-195 177-105 0-189-80-197-184-3 2-6 4-11 5-9 5-18 9-34 11v349z m407-369c-4 0-5 0-8 0-17 0-25 5-34 9-11 6-25 13-48 13-24 0-37-6-49-13-9-4-17-9-34-9s-25 5-35 9c-11 6-25 13-50 13-24 0-37-6-47-13-8-4-14-7-28-9 5 88 77 157 166 157s162-68 167-157z m-407-11c8-1 13-5 19-8 10-6 24-12 49-12 25 0 37 8 49 12 10 5 17 10 34 10s25-5 36-10c10-6 24-12 49-12 24 0 37 6 47 12 10 5 17 10 36 10 18 0 24-5 34-10 10-6 24-12 49-12 25 0 37 6 48 12 6 3 12 7 20 8v-81c-16-2-25-8-34-11-9-5-17-9-36-9-17 0-24 4-33 9-11 6-25 12-48 12-25 0-37-6-49-12-10-5-17-9-34-9s-25 4-36 9c-10 6-24 12-49 12-25 0-37-6-48-12-9-5-17-9-35-9-17 0-25 4-34 9-9 4-18 9-34 11v81z m113 257l34 15c20 10 43 8 61-3l19-10c4-3 10-3 15 0l20 10c18 11 41 13 61 3l34-15c2-2 5-2 6-2 7 0 11 4 16 10 3 7 0 17-8 20l-34 15c-29 14-63 12-90-5l-11-6-11 6c-28 16-62 19-91 5l-34-15c-7-3-10-13-7-20s12-11 20-8z" horiz-adv-x="1714" />

<glyph glyph-name="travel-27" unicode="&#xe812;" d="M1271 496c8 0 15 6 15 15v77c0 10-7 16-15 16h-69l-337 175c-5 2-9 2-14 0l-340-175h-68c-7 0-15-6-15-15v-77c0-10 8-16 15-16h53v-430h-53c-7 0-15-6-15-16v-115c0-8 8-16 15-16h828c8 0 15 8 15 16v115c0 9-7 15-15 15h-52v431h52z m-414 252l279-144h-63l-208 108c-5 3-9 3-14 0l-208-108h-63l277 144z m148-144h-295l147 77 148-77z m251-569v-85h-797v85h797z m-730 30v431h56v-431h-56z m87 0v431h55v-431h-55z m87 0v431h56v-431h-56z m86 0v431h56v-431h-56z m87 0v431h55v-431h-55z m87 0v431h56v-431h-56z m86 0v431h56v-431h-56z m87 0v431h55v-431h-55z m-674 462v46h740 57v-46h-797z" horiz-adv-x="1714" />

<glyph glyph-name="travel-28" unicode="&#xe813;" d="M1285-50h-188l16 126h26c9 0 15 6 15 15 0 8-6 16-15 16h-23l26 204h23c9 0 15 7 15 16 0 8-6 15-15 15h-20l23 185h37c9 0 15 8 15 15 0 10-6 16-15 16h-32l15 127c0 5 0 10-3 13s-8 4-12 4h-34l12 59c2 4 0 9-3 12s-8 6-12 6h-400c-8 0-14-4-16-12l-12-65h-40c-8 0-14-6-15-14l-19-130h-26c-9 0-15-7-15-16 0-7 6-15 15-15h23l-23-185h-26c-8 0-15-7-15-15 0-9 7-16 15-16h23l-25-204h-37c-7 0-15-8-15-16 0-9 8-15 15-15h33l-16-126h-106c-9 0-15-8-15-15 0-10 6-16 15-16h831c9 0 15 6 15 16 0 7-6 15-15 15z m-539 800h370l-10-46h-369l9 46z m-67-77h475l-14-115h-74l10 64c1 10-5 17-13 17-9 2-17-4-17-12l-10-69h-46l9 64c1 10-5 17-13 17-7 2-16-4-16-12l-11-69h-46l9 64c1 10-5 17-12 17-8 2-17-4-17-12l-11-69h-46l9 64c2 10-5 17-12 17-8 2-17-4-17-12l-11-69h-46l9 64c2 10-4 17-12 17-8 2-17-4-17-12l-11-69h-63l14 115z m-17-146h475l-23-185h-77l11 85c2 9-5 17-14 17-8 2-15-5-17-14l-11-88h-46l11 85c2 9-5 17-14 17-8 2-15-5-17-14l-11-88h-46l11 85c2 9-5 17-14 17-8 2-15-5-17-14l-11-88h-46l11 85c2 9-5 17-14 17-8 2-15-5-17-14l-11-88h-46l11 85c2 9-5 17-14 17-8 2-15-5-17-14l-11-88h-60l24 185z m404-577h-475l15 126h476l-16-126z m-63 157l10 80c1 9-5 17-14 17-8 2-16-5-17-14l-10-83h-46l10 80c1 9-5 17-14 17-8 2-16-5-17-14l-10-83h-46l10 80c1 9-5 17-14 17-8 2-16-5-17-14l-10-83h-46l10 80c1 9-5 17-14 17-8 2-16-5-17-14l-10-83h-46l10 80c1 9-5 17-14 17-8 2-16-5-17-14l-9-83h-56l26 205h476l-25-205h-83z" horiz-adv-x="1714" />

<glyph glyph-name="travel-29" unicode="&#xe814;" d="M1286-39c-110 78-223 126-333 143-5 123-33 258-176 409 59 11 106 0 143-31 6-4 13-4 19-1 6 4 7 10 6 18-31 86-77 128-143 123 21 69 83 91 167 102 8 1 13 6 14 14 0 7-3 14-10 17-87 27-191 46-260-54-30 50-60 80-91 90-23 8-46 4-68-9-4-3-8-7-8-14 0-6 4-10 10-14 41-18 54-49 40-95-57 9-99 0-126-28-36-35-45-97-28-190 2-8 8-13 15-13s14 5 16 13c10 43 29 103 63 115 14 5 30 3 49-8-26-21-42-46-45-74-7-49 19-107 86-186 5-4 13-6 19-4 6 3 9 9 9 15-8 58 8 115 42 157 107-129 101-245 77-351-111-17-222-66-331-146-8-5-9-11-8-17 2-6 8-11 16-11h830c8 0 16 6 16 16 0 6-3 11-10 14z m-580 529c-3 3-6 5-10 5-5 0-10-2-11-5-37-38-60-91-63-148-38 53-55 93-51 126 5 25 20 47 51 67 5 3 8 7 8 12s-3 11-6 12c-37 26-70 34-97 23s-46-37-60-67c-2 43 7 75 26 93 21 22 60 28 112 17 8-1 15 3 17 10 23 64 6 103-22 127 5 0 11 0 16-1 27-10 57-42 86-99 3-4 8-7 14-7s10 3 14 7c35 66 89 93 170 79-61-17-115-53-130-134-2-5 0-11 4-14 3-3 10-5 14-5 51 10 86-7 113-57-43 19-94 20-154 5-5-2-10-6-11-11-2-6 0-10 5-15 143-142 180-265 186-403-20 1-42 3-62 3-20 0-38-2-58-3 19 112 23 243-101 383z m-207-528c120 79 241 119 363 119s244-40 368-119h-731z" horiz-adv-x="1714" />

<glyph glyph-name="travel-30" unicode="&#xe815;" d="M1286 392c0 4-1 10-1 15 0 3-2 8-2 11 0 4-1 10-3 15-34 169-166 305-338 340-56 11-114 11-169 0-173-35-305-171-339-338v-2c0-5-1-9-1-14s-2-8-2-12c0-5-2-11-2-16s-1-9-1-13c0-3 0-7 0-10 0-6 0-12 0-20 0-7 0-12 0-20 0-3 0-6 0-9 0-5 0-9 1-14 0-5 2-11 2-15 0-5 2-8 2-13s1-7 3-12v-2c34-167 166-304 338-338 28-6 55-8 85-8 27 0 57 3 84 8 171 37 303 172 337 340 2 5 2 11 3 15 0 3 2 6 2 11 1 5 1 11 1 15 0 5 2 10 2 14 0 3 0 6 0 10 0 6 0 12 0 20s0 12 0 18c0 3 0 6 0 9 0 5 0 10-2 15z m-336 347c147-35 261-150 296-295l-173-34c-20 75-80 135-157 157l34 172z m101-369c-1-9-1-14-1-20s0-11 0-17c0-3 0-8-2-11 0-3-2-6-2-9-15-75-74-135-150-151-25-4-51-4-76 0-78 16-137 79-150 156-2 6-2 10-4 17 0 6 0 10 0 17 0 7 0 17 2 26 0 3 2 6 2 7 14 77 74 140 152 156 25 4 51 4 75 0 77-16 136-77 151-151 0-3 2-6 2-9s1-8 1-11z m-254 375c2 0 2 0 3 0 6 2 13 2 17 2 5 0 11 2 17 2 16 1 31 1 46 0 6 0 11 0 17-2 6 0 13-2 17-2 2 0 2 0 3 0 2 0 2 0 3 0l-34-174h-1c-3 0-6 2-10 2-10 2-23 2-34 0-3 0-6 0-9-2h-1l-37 174c2 0 2 0 3 0z m-32-6l34-174c-77-20-137-81-157-157l-174 34c35 145 148 262 297 297z m-305-444c0 1 0 3 0 3 0 3-1 7-1 10 0 8-2 16-2 23 0 7 0 13 0 19s0 12 0 18c0 8 0 14 2 22 0 5 1 8 1 12 0 2 0 2 0 2 0 1 0 3 0 4 0 2 0 3 0 5l174-34c0-3 0-4 0-8s0-4 0-7c0-5 0-9 0-14 0-5 0-9 0-14 0-2 0-5 0-6 0-3 0-5 0-8l-172-35c0 3 0 5-2 8z m305-334c-148 35-262 152-297 297l174 34c20-76 80-136 157-157l-34-174z m152-6c-4 0-7-2-12-2-3 0-6-2-9-2-6 0-11-1-17-1-3 0-6 0-10 0-9 0-18 0-26 0-3 0-6 0-9 0-12 0-25 1-37 4 0 0-2 0-3 0l34 174c2 0 3 0 6 0 8-1 15-1 23-1 5 0 9 0 14 0 3 0 6 0 11 1 1 0 3 0 4 0l34-174c0 1-1 1-3 1z m33 6l-34 174c77 21 137 81 157 157l173-34c-35-145-147-262-296-297z m307 403c0-6 0-12 0-18s0-8 0-14c0-8-1-16-1-23 0-3 0-8-2-11 0-2 0-3 0-6 0-2 0-2 0-3 0-2 0-2 0-3l-174 34c2 9 2 18 2 27 0 10 0 19-2 28l174 34v-2c0-1 0-3 0-4 0-6 2-11 2-17 0-3 1-8 1-11s0-8 0-11z" horiz-adv-x="1714" />

<glyph glyph-name="travel-31" unicode="&#xe816;" d="M831 76c80 0 146 66 146 146 0 80-66 146-146 146-80 0-146-66-146-146 0-80 66-146 146-146z m-15 260v-114c0-9 6-15 15-15h69c10 0 16 6 16 15 0 9-6 16-16 16h-54v98c57-8 100-55 100-114 0-63-52-115-115-115-63 0-115 52-115 115 0 59 43 106 100 114z m230 89c0 2 0 3-1 5v2l-51 87v85c0 9-6 15-15 15h-83l-51 151c-2 6-8 11-14 11s-12-5-14-11l-51-151h-81c-9 0-15-6-15-15v-86l-51-86v-2c0 0 0 0 0-1 0-2-2-3-2-5s0-2 0-3v-400c0-9 6-15 16-15h61v-73c0-9 6-15 16-15 9 0 15 6 15 15v72h92v-72c0-9 6-15 16-15s15 6 15 15v72h92v-72c0-9 6-15 16-15 9 0 15 6 15 15v72h62c9 0 15 6 15 16v400c-2 3-2 4-2 4z m-215 291l32-97h-64l32 97z m-131-128h185 77v-58h-262v58z m-6-89h276l35-61h-348l37 61z m322-461h-370v369h370v-369z" horiz-adv-x="1714" />

<glyph glyph-name="travel-32" unicode="&#xe817;" d="M1154-41h-32l-109 177h44c8 0 16 8 16 15 0 10-8 16-16 16h-69-6l-46 138h61c8 0 16 6 16 16 0 9-8 15-16 15h-75l-25 246c14 13 23 31 23 51 0 31-21 57-50 65v77c0 7-7 15-16 15-8 0-15-8-15-15v-76c-29-6-51-34-51-64 0-20 9-39 23-51l-25-246h-66c-7 0-15-6-15-15 0-10 8-16 15-16h53l-46-138h-6-64c-7 0-15-6-15-16 0-7 8-15 15-15h37l-109-177h-23c-8 0-16-8-16-16 0-9 8-15 16-15h234c7 0 15 6 15 15 0 8-8 16-15 16h-26c6 60 49 89 90 89s83-28 90-89h-27c-7 0-15-8-15-16 0-9 8-15 15-15h234c9 0 16 6 16 15-3 7-10 14-19 14z m-252 346l46-138h-80v138h34z m-49 365c20 0 35-15 35-35 0-20-15-36-35-36s-36 16-36 36c0 20 16 35 36 35z m-13-102h26l23-230h-72l23 230z m-35-263h34v-138h-82l48 138z m174-346c-6 79-65 120-122 120-57 0-114-41-121-120h-117l109 177h251l107-177h-107z" horiz-adv-x="1714" />

<glyph glyph-name="travel-33" unicode="&#xe818;" d="M1280 535c-3 3-9 4-14 3l-201-54-175 46 15 29c11 20 15 42 15 63v5c0 92-78 166-172 160-85-5-151-78-151-166 0-22 5-43 16-63l38-74-205 54c-4 1-9 0-13-3-3-3-7-8-7-13v-526c0-7 5-14 11-15l208-54c0 0 0 0 1 0h2 2 1 2 2l201 52 203-52c2 0 3-2 5-2s3 0 4 0h2l206 54c6 2 12 8 12 16v527c-2 5-3 10-8 13z m-646-573l-177 46v494l177-46v-494z m208 46l-177-46v493l78-153c3-4 8-7 14-7s11 3 14 7l71 137v-431z m8 513l-8-16-2-3-83-160-61 122-8 14-8 15-41 80c-8 16-13 33-13 50 0 70 54 130 122 135 3 0 6 0 9 0 73 0 131-58 131-131v-4c0-17-5-34-12-50l-17-35-9-17z m198-559v1l-175 45v494h1l174-46v-493l2-1h-2z m208 46l-177-46v494l177 46v-494z m-499 696c-43 0-77-34-77-77 0-43 34-77 77-77 43 0 77 34 77 77 0 43-34 77-77 77z m0-123c-24 0-46 20-46 46s20 46 46 46c25 0 46-20 46-46s-20-46-46-46z" horiz-adv-x="1714" />

<glyph glyph-name="travel-34" unicode="&#xe819;" d="M1299 339l-153 228c-9 14-23 22-40 22-15 0-30-8-40-22l-89-135-166 246c-8 14-23 21-38 21-16 0-31-7-40-21l-99-151-90 135c-10 14-23 22-40 22-16 0-31-8-40-22l-22-34c-5-7-3-17 5-21 7-5 17-3 21 4l23 34c3 5 8 8 14 8s11-3 14-8l97-146-60-92-114-172c-4-8-3-17 5-22 8-5 17-3 21 5l107 163c32-5 47-25 66-48 20-26 41-55 92-60 49-5 77 20 102 42 23 20 43 37 78 34 35-3 52-25 69-48 20-26 42-54 89-60l157-232c3-5 8-6 13-6 3 0 6 1 9 3 8 4 9 14 5 21l-164 238-95 140 97 146c3 5 7 8 13 8s11-3 14-8l153-227c3-5 7-6 12-6 3 0 6 0 8 3 9 3 10 12 6 18z m-256-60c-15 10-26 23-38 39-20 26-42 55-91 60-4 0-8 0-12 0-42 0-68-23-89-42-23-20-42-37-79-34-35 3-52 25-71 48-17 23-35 48-72 57l166 254c3 4 8 7 14 7 5 0 8-1 11-4 1-2 1-2 3-3l177-263 3-5 78-114z" horiz-adv-x="1714" />

<glyph glyph-name="travel-35" unicode="&#xe81a;" d="M857 615h-138c-9 0-16-6-16-16 0-9 7-15 16-15h138c8 0 16 6 16 15 0 9-7 16-16 16z m-138-185h283c8 0 15 6 15 15 0 10-6 16-15 16h-283c-9 0-16-6-16-16 0-9 7-15 16-15z m283-123h-283c-9 0-16-6-16-15 0-10 7-16 16-16h283c8 0 15 6 15 16 0 9-6 15-15 15z m-114-185h114c8 0 15 6 15 16 0 9-6 15-15 15h-114c-9 0-15-6-15-15 0-10 6-16 15-16z m231 659h-523c-39 0-70-31-70-68v-725c0-38 31-69 70-69h524c39 0 70 31 70 69v725c-2 37-33 68-71 68z m38-793l0 0c0-20-17-38-38-38h-523c-20 0-39 17-39 38v725c0 22 17 37 39 37h260c-8-32-37-58-73-58h-49c-51 0-92-42-92-93 0-50 41-92 92-92h246c34 0 62-28 62-62s-28-61-62-61h-246c-51 0-92-42-92-92s41-93 92-93h246c34 0 62-27 62-61s-28-62-62-62h-175l17 17c6 6 6 15 0 22-6 6-16 6-22 0l-32-33-32 33c-6 6-16 6-22 0-6-6-6-16 0-22l32-32-32-33c-6-6-6-15 0-21 3-3 8-5 11-5s8 2 11 5l32 32 32-32c3-3 8-5 11-5 5 0 8 2 11 5 6 6 6 15 0 22l-17 17h175c51 0 92 41 92 92 0 51-41 92-92 92h-246c-34 0-61 28-61 62s27 61 61 61h246c51 0 93 42 93 93 0 50-42 92-93 92h-246c-34 0-61 28-61 62s27 61 61 61h49c53 0 96 39 103 90h233c20 0 38-17 38-37v-726z" horiz-adv-x="1714" />

<glyph glyph-name="travel-36" unicode="&#xe81b;" d="M1114 781h-520c-35 0-63-28-63-63v-736c0-35 28-63 63-63h520c36 0 63 28 63 63v736c0 35-27 63-63 63z m32-799c0-17-13-32-32-32h-520c-17 0-32 14-32 32v736c0 17 14 32 32 32h520c19 0 32-14 32-32v-736z m-292 226c131 0 239 107 239 239s-108 238-239 238-238-107-238-238c0-132 107-239 238-239z m0 31c-54 0-100 86-104 193h207c-3-107-49-193-103-193z m82 17c30 40 50 103 52 175h72c-4-78-55-146-124-175z m126 206h-72c-4 73-24 136-53 176 68-30 119-97 125-176z m-208 193c54 0 100-86 105-193h-209c4 106 50 193 104 193z m-81-17c-31-40-51-103-53-176h-72c5 79 55 146 125 176z m-54-206l0 0c3-73 23-136 54-176-70 30-120 97-125 176h71z m364-390h-457c-9 0-15-6-15-15 0-9 6-15 15-15h456c9 0 17 6 17 15 0 9-6 15-16 15z m0 62h-457c-9 0-15-6-15-15 0-10 6-16 15-16h456c9 0 17 6 17 16 0 9-6 15-16 15z" horiz-adv-x="1714" />

<glyph glyph-name="travel-37" unicode="&#xe81c;" d="M1234 416h-188l-209 311c-3 4-7 8-12 8h-69c-5 0-10-4-13-7-3-3-4-9-3-13l93-299h-180l-70 72c-3 3-7 5-10 5h-119c-6 0-12-5-14-9-3-6-1-13 3-17l117-117-117-117c-4-5-6-11-3-17s8-9 14-9h117c5 0 8 1 11 4l69 73h180l-92-299c-2-5 0-9 3-14 3-4 8-6 12-6h69c5 0 10 3 13 6l209 311h189c37 0 66 29 66 66 0 37-29 68-66 68z m0-101h-195c-5 0-11-3-13-6l-210-313h-40l92 299c2 4 0 9-3 14-3 4-8 6-12 6h-207c-4 0-7-2-10-5l-70-72h-75l102 101c3 3 4 6 4 11 0 5-1 8-4 11l-102 101h74l69-72c3-3 6-5 11-5h208c4 0 9 3 12 6 3 5 5 10 3 14l-92 299h40l209-311c3-4 8-7 12-7h197c20 0 36-16 36-36s-16-35-36-35z m-712 358h143c9 0 15 6 15 15s-6 16-15 16h-143c-9 0-16-6-16-16s7-15 16-15z m-62-77h143c10 0 16 6 16 15 0 10-6 16-16 16h-143c-9 0-15-6-15-16 0-9 6-15 15-15z m159-477c0 10-6 16-16 16h-143c-9 0-15-6-15-16 0-9 6-15 15-15h143c10 0 16 6 16 15z m46-61h-143c-9 0-16-6-16-16 0-9 7-15 16-15h143c9 0 15 6 15 15 0 10-6 16-15 16z" horiz-adv-x="1714" />

<glyph glyph-name="travel-38" unicode="&#xe81d;" d="M1283 598h-192l-214 167c-6 5-14 5-18 0l-216-167h-190c-8 0-16-6-16-16v-609c0-9 8-15 16-15h830c8 0 16 6 16 15v609c0 10-8 16-16 16z m-415 135l174-135h-348l174 135z m400-745h-800v579h800v-579z m-742 45h682c8 0 15 6 15 15v460c0 8-6 16-15 16h-682c-7 0-15-6-15-16v-460c0-9 8-15 15-15z m16 460h651v-255h-133c-7 100-90 178-192 178-102 0-185-78-192-178h-134v255z m486-255h-323c8 83 77 147 161 147 85 0 154-64 162-147z m-486-31h651v-143h-651v143z m64-57h196c9 0 15 6 15 15 0 10-6 16-15 16h-196c-9 0-15-6-15-16 0-9 6-15 15-15z m565 15c0 10-6 16-15 16h-236c-9 0-15-6-15-16 0-9 6-15 15-15h236c7 0 15 6 15 15z m-15-46h-140c-10 0-16-6-16-15 0-9 6-15 16-15h140c7 0 15 6 15 15 0 9-6 15-15 15z m-253 0h-324c-9 0-16-6-16-15 0-9 7-15 16-15h324c8 0 16 6 16 15 0 9-6 15-16 15z" horiz-adv-x="1714" />

<glyph glyph-name="travel-39" unicode="&#xe81e;" d="M857 707c-197 0-357-160-357-357 0-98 40-188 105-252s154-105 252-105c99 0 188 40 253 105s104 154 104 252c0 197-160 357-357 357z m0-31c85 0 162-32 220-85l-220-219-220 220c59 52 136 84 220 84z m-326-326c0 85 32 162 85 220l220-220-220-220c-53 58-85 135-85 220z m326-326c-84 0-161 32-220 85l220 219 220-220c-58-52-135-84-220-84z m242 106l-220 220 220 220c52-58 84-135 84-220 0-85-32-162-84-220z m-242 651c-237 0-431-194-431-431s194-431 431-431 431 194 431 431-194 431-431 431z m0-831c-220 0-400 180-400 400s180 400 400 400 400-180 400-400-180-400-400-400z m26 618c0 33-26 59-58 59-32 0-59-26-59-59s27-58 59-58 58 26 58 58z m-58-26c-15 0-28 13-28 28 0 15 13 28 28 28 15 0 28-13 28-28 0-15-13-28-28-28z m303-181c0 38-32 72-72 72-40 0-73-32-73-72s33-73 73-73 72 33 72 73z m-72-42c-23 0-42 19-42 42s18 42 42 42 41-19 41-42-18-42-41-42z m-157-241c31 0 57 26 57 57s-25 57-57 57c-31 0-57-26-57-57s26-57 57-57z m0 83c14 0 26-13 26-26s-11-26-26-26c-14 0-26 12-26 26s12 26 26 26z m-248 266c-37 0-66-29-66-66s29-66 66-66c37 0 66 29 66 66-1 37-31 66-66 66z m0-102c-20 0-35 16-35 36s15 35 35 35c20 0 35-15 35-35s-16-36-35-36z m105-177c-6 5-17 3-22-3l-12-17c-5-6-3-17 3-21 3-2 6-3 9-3 5 0 9 1 12 6l13 17c4 6 3 17-3 21z m98 84c5 6 3 17-3 21-6 5-17 3-21-3l-13-17c-4-6-3-17 3-21 3-2 6-3 10-3 4 0 9 1 12 6l12 17z m260 21c-6 5-17 3-21-3l-13-17c-4-6-3-17 3-22 3-1 6-3 10-3 4 0 9 2 12 7l12 16c5 7 3 17-3 22z m-238 202c4 6 3 17-3 21-7 5-17 3-22-3l-12-17c-5-6-3-17 3-21 3-2 6-3 9-3 5 0 9 3 12 6l13 17z m78 103c3-2 6-3 9-3 5 0 10 1 13 6l12 17c5 6 3 17-3 21-6 5-17 3-22-3l-12-17c-5-6-3-17 3-21z m-317-305c-6 5-17 3-21-3l-13-17c-4-6-3-17 3-22 3-1 6-3 10-3 4 0 9 2 12 7l12 16c5 7 3 17-3 22z" horiz-adv-x="1714" />

<glyph glyph-name="travel-40" unicode="&#xe81f;" d="M1143 419c-43 0-77-34-77-77 0-43 34-77 77-77 43 0 77 34 77 77 0 43-34 77-77 77z m0-123c-26 0-46 20-46 46 0 25 20 46 46 46s46-20 46-46c1-26-19-46-46-46z m11 206c-94 6-171-67-171-160v-4c0-22 5-43 16-63l120-236h-565c-9 0-18 5-21 14s-2 19 4 25l300 295c16 16 20 39 13 59s-28 34-50 34h-220l76 146c7 14 10 29 10 43 0 60-46 110-104 114-65 4-119-48-119-111v-3c0-15 3-31 11-43l88-166c0 0 0-2 1-2 0-1 2-1 2-3 1-1 1-1 3-3 2 0 2-2 3-2 2 0 2 0 3 0h245c9 0 17-6 21-13 3-10 2-19-4-25l-300-297c-16-15-20-38-13-58 8-20 28-34 50-34h590c6 0 13 4 14 9l133 257c10 20 15 41 15 63 0 87-66 160-151 164z m-601-18l-71 143c-5 9-8 20-8 29v3c0 45 36 80 80 80 2 0 3 0 5 0 41-3 75-40 75-83 0-10-3-20-8-29l-73-143z m709-196l-119-230-118 230c-8 16-12 33-12 50v4c0 73 58 131 130 131 3 0 7 0 10 0 67-5 121-63 121-135 0-17-4-34-12-50z m-706 428c-31 0-56-25-56-55s25-56 56-56 55 25 55 56-25 55-55 55z m0-81c-14 0-25 10-25 24s11 25 25 25c14 0 24-11 24-25 0-12-10-24-24-24z" horiz-adv-x="1714" />

<glyph glyph-name="travel-41" unicode="&#xe820;" d="M962 227h-123l-137 205c-3 4-8 6-12 6h-47c-4 0-9-3-12-6-3-5-3-10-3-14l58-193h-110l-45 46c-3 4-6 5-11 5h-78c-6 0-12-3-14-9-3-6-2-12 3-17l74-74-74-74c-5-5-6-11-3-17 2-6 8-9 14-9h78c5 0 8 1 11 4l45 46h110l-58-192c-2-5 0-9 3-14 3-5 8-6 12-6h47c4 0 9 3 12 6l137 205h123c28 0 49 21 49 49 0 31-23 53-49 53z m0-68h-131c-5 0-11-3-12-7l-139-205h-17l59 192c1 5 0 10-3 14-3 5-8 6-13 6h-138c-5 0-8-1-11-4l-44-46h-34l58 58c3 3 5 6 5 11s-2 7-5 10l-58 59h34l44-46c3-3 6-5 11-5h138c5 0 10 2 13 6 3 5 3 9 3 14l-59 192h17l139-204c3-5 7-6 12-6h131c10 0 18-8 18-19 0-11-9-20-18-20z m248 359l73 74c5 4 7 10 3 17-1 6-7 9-13 9h-79c-4 0-8-2-11-5l-44-46h-111l58 193c2 4 0 9-3 13s-7 7-12 7h-46c-5 0-9-4-12-8l-137-205h-123c-28 0-50-21-50-49s22-49 50-49h123l137-205c3-5 7-6 12-6h46c8 0 15 6 15 15 0 3-1 5-1 8l-59 189h111l45-46c3-3 6-4 10-4h79c6 0 12 4 14 9 3 6 1 12-3 17l-72 72z m-8-73v3l-45 47c-3 3-6 4-11 4h-138c-5 0-9-3-12-6-3-4-3-9-3-14l58-192h-17l-138 205c-3 4-8 6-13 6h-130c-11 0-19 7-19 18s8 19 19 19h130c5 0 11 3 13 6l138 204h17l-58-192c-2-5 0-9 3-14s7-6 12-6h138c5 0 8 2 11 5l45 46h34l-59-59c-3-3-4-6-4-10 0-5 1-8 4-11l59-59h-34z" horiz-adv-x="1714" />

<glyph glyph-name="travel-42" unicode="&#xe821;" d="M1200 138l77 149c6 14 11 29 11 43 0 60-46 111-105 114-64 6-118-46-118-109v-3c0-16 3-31 11-43l77-150c-45-9-79-46-85-92h-332l258 532h157c8 0 15 6 15 16v87c0 10-7 16-15 16h-343c-6 0-11-3-14-8l-152-291c-13 37-43 66-82 74l77 151c8 11 12 26 12 42 0 60-46 110-104 114-65 4-119-47-119-111v-3c0-16 3-31 11-43l78-151c-49-11-87-55-87-108 0-60 49-109 109-109 48 0 89 31 103 74l177 337h318v-57h-150c-6 0-11-3-14-9l-274-564c-3-5-1-11 0-15 3-5 8-8 13-8h356c8-54 54-94 110-94 60 0 110 49 110 109 0 54-36 99-86 110z m-735 498c-5 9-8 20-8 29v3c0 45 36 80 80 80 2 0 3 0 5 0 43-1 77-38 77-83 0-10-3-20-8-29l-74-143-72 143z m72-352c-43 0-78 35-78 78 0 43 35 79 78 79 43 0 79-36 79-79 1-43-34-78-79-78z m566 17c-4 9-7 20-7 29v3c0 45 35 80 80 80 1 0 3 0 6 0 41-3 75-40 75-83 0-11-3-20-8-29l-72-143-74 143z m74-349c-43 0-78 35-78 78 0 43 35 78 78 78s80-35 80-78c-1-43-37-78-80-78z m-584 716c0 31-25 56-56 56s-55-25-55-56c0-30 24-55 55-55s56 25 56 55z m-80 0c0 14 10 25 24 25s25-11 25-25c1-13-11-24-25-24s-24 11-24 24z m720-333c0 30-25 55-56 55s-55-25-55-55 24-56 55-56 56 25 56 56z m-80-2c0 14 10 25 24 25s25-11 25-25c0-12-11-25-25-25s-24 11-24 25z" horiz-adv-x="1714" />

<glyph glyph-name="travel-43" unicode="&#xe822;" d="M1283 685h-723v34c0 34-27 62-61 62s-62-28-62-62v-784c0-10 8-16 15-16h93c7 0 15 6 15 16v720h115v-63c-38-8-69-42-69-83v-343c0-46 39-85 85-85h446c46 0 84 38 84 85v342c0 42-30 76-69 83v64h131c8 0 15 6 15 15 1 9-7 15-15 15z m-753-735h-62v769c0 17 14 31 31 31s30-14 30-31v-769z m176 705h416v-62h-416v62z m485-147v-343c0-29-25-54-54-54h-446c-29 0-54 25-54 54v343c0 30 25 54 54 54h446c29 0 54-24 54-54z m-351-35h-149c-9 0-15-6-15-15s6-16 15-16h149c10 0 16 6 16 16s-6 15-16 15z m0-61h-149c-9 0-15-6-15-16s6-15 15-15h149c10 0 16 6 16 15s-6 16-16 16z m0-62h-149c-9 0-15-6-15-15 0-10 6-16 15-16h149c10 0 16 6 16 16 0 9-6 15-16 15z m0-62h-149c-9 0-15-6-15-15 0-9 6-15 15-15h149c10 0 16 6 16 15 0 9-6 15-16 15z m0-61h-149c-9 0-15-6-15-15 0-10 6-16 15-16h149c10 0 16 6 16 16 0 9-6 15-16 15z m208 203c-6-6-6-15 0-22l58-58h-174c-7 0-15-8-15-15 0-8 8-16 15-16h176l-58-58c-7-6-7-16 0-22 3-3 6-4 10-4 3 0 8 1 11 4l85 85c3 3 4 6 4 11 0 4-1 9-6 10l-84 85c-7 6-16 6-22 0z" horiz-adv-x="1714" />

<glyph glyph-name="travel-45" unicode="&#xe823;" d="M617 279h137c8 0 16 6 16 16v61c0 8-8 16-16 16h-137c-7 0-15-8-15-16v-61c0-10 8-16 15-16z m16 62h106v-31h-106v31z m213-62h137c10 0 16 6 16 16v61c0 8-6 16-16 16h-137c-7 0-15-8-15-16v-61c0-10 8-16 15-16z m16 62h106v-31h-106v31z m411-117c-37 0-74 8-108 23l108 254c1 5 1 11-2 15-3 5-8 6-14 6l-105-10v26c0 9-7 15-15 15h-209v77c0 9-8 15-15 15h-87c-7 0-15-6-15-15v-77h-45v155c0 10-7 16-15 16h-86c-8 0-15-6-15-16v-158h-46c-8 0-16-6-16-15v-96h-107c-5 0-11-3-14-7-3-5-3-11 0-16l98-172-5-2c-32-14-67-21-103-21h-15c-8 0-15-6-15-16v-154c0-7 7-15 15-15h17c40 0 78 8 115 25l16 6 3-2c38-18 83-29 126-29h17c40 0 78 8 115 25l15 6 4-2c38-18 83-29 126-29h17c40 0 78 7 115 24l15 6 3-1c39-19 83-29 126-29 8 0 16 7 16 15v154c0 11-8 19-15 19z m-431 389l0 0h55v-62h-55v62z m-160 80h55v-143h-55v143z m-63-172h504v-14l-120-12c-6 0-10-5-12-10l-22-44h-350v80z m-111-111h472c6 0 11 3 14 9l22 46 123 14h3l94 10-100-236-19-7c-32-14-67-22-103-22h-17c-38 0-78 9-112 26l-9 5c-5 1-10 1-13 0l-21-10c-32-14-68-21-103-21h-17c-39 0-79 9-114 26l-8 5-92 155z m752-340h-3c-34 2-67 11-97 26l-9 5c-5 1-9 1-12 0l-22-10c-32-13-68-21-103-21h-17c-38 0-78 9-112 26l-10 5c-1 1-4 1-6 1-1 0-4 0-6-1l-21-10c-33-14-68-21-103-21h-17c-39 0-79 9-114 26l-10 4c-4 2-9 2-12 0l-21-9c-33-14-68-21-104-21h-4v123h2c40 0 78 7 115 24l8 3 8 3 3-1c6-3 12-6 20-8 33-14 70-20 107-20h17c40 0 79 8 116 25l12 4 5 2 3-2c38-18 83-29 126-29h17c38 0 77 8 112 23 2 0 2 2 3 2l15 6 3-2c3-2 5-3 8-3 32-15 68-23 103-25v-125z" horiz-adv-x="1714" />

<glyph glyph-name="travel-46" unicode="&#xe824;" d="M1262 27c-22 0-31 12-45 26-14 15-32 35-67 35-36 0-54-20-68-35-12-15-23-26-45-26-21 0-31 12-44 26-14 15-33 35-68 35-35 0-54-20-68-35-12-15-23-26-44-26s-31 12-45 26c-14 15-32 35-68 35s-54-20-67-35c-13-15-23-26-45-26-22 0-31 12-45 26-15 15-32 35-67 35-10 0-16-6-16-15 0-9 6-15 16-15 21 0 30-13 44-26 16-16 33-36 68-36s54 20 68 36c12 15 23 26 44 26s31-13 45-26c14-16 32-36 68-36s53 20 67 36c13 15 23 26 45 26 21 0 31-13 45-26 13-16 32-36 67-36 36 0 54 20 68 36 12 15 23 26 45 26 21 0 30-13 44-26 14-16 32-36 68-36 8 0 15 6 15 16 0 9-6 15-15 15z m-406 149c-13-15-23-26-45-26s-31 12-45 26c-6 6-15 6-21 0-6-5-6-15 0-21 15-16 32-36 67-36s54 20 68 36c12 15 23 26 45 26 21 0 30-13 44-26 14-16 33-36 68-36 35 0 54 20 68 36 12 15 23 26 44 26 22 0 31-13 45-26 14-16 32-36 68-36 7 0 14 6 14 16 0 9-6 15-16 15-21 0-30 12-44 26-14 15-33 35-68 35-35 0-54-20-68-35-12-15-23-26-44-26-22 0-31 12-45 26-14 15-32 35-68 35s-53-19-67-35z m406 97c-22 0-31 12-45 26-14 16-32 36-67 36-36 0-54-20-68-36-12-15-23-26-45-26-9 0-18 2-26 8s-17 3-21-3c-7-8-5-17 3-22 13-9 27-14 44-14 36 0 54 20 68 36 12 15 23 26 45 26 21 0 30-13 44-26 14-16 32-36 68-36 8 0 15 6 15 16 0 9-6 15-15 15z m-712-94c24 0 47 3 72 8 284 61 446 140 524 252l144 231c0 6 0 14-5 18-5 5-11 8-17 5l-166-52-125 60c-1 1-4 1-6 1h-60c-20 0-38-1-55-4-6 0-11 0-14-2-3 0-5 0-8-1-1 0-3 0-3 0h-3c-3 0-5 0-8-2l-66-9-201-31c-26-3-45-26-45-52 0-30 23-53 52-53h2l114 17-40-66-51-14c-52-14-92-57-103-110v-2l-6-103c-35-8-48-29-46-49 2-23 20-42 43-42h77z m278 485c3 0 6 2 8 2 7 1 15 1 23 3 15 3 32 4 50 4h57l91-44-195-62c0 0 0 0-2 0l-111-34 79 131z m-272-85c-13 0-22 11-22 22 0 11 8 20 18 22l170 24-30-49-136-19z m160-1l46 77 27 4-83-140-29-9h-2l41 68z m-206-208c7 42 40 75 80 86l95 25 135 41c-38-38-114-97-237-115-29-5-50-31-50-60 0-6 0-62-30-75l7 98z m-53-148c0 10 13 16 31 19l14-2h1c2 0 3 0 5 0 55 17 57 92 57 108 0 14 11 28 25 29 186 28 269 137 286 163l229 71 134 41-122-195c-72-105-234-180-506-240-21-5-43-6-64-6h-77c-7 0-13 6-13 12z" horiz-adv-x="1714" />

<glyph glyph-name="travel-47" unicode="&#xe825;" d="M913 355c3-3 6-6 7-10 6-7 10-17 10-26 0-1 0-3 0-4 0-8 6-16 15-16 8 0 14 5 15 13 0 1 0 1 0 3 0 10-3 21-6 30 0 3-1 5-3 8-5 9-12 18-20 26-5 3-8 6-12 9-9 7-19 11-29 13-2 0-4 0-5 0-5 1-9 1-14 1-5 0-9-3-12-7-2-2-3-5-3-8 0-8 7-15 15-15l2 1 1-3c5 0 9 0 12-1h2c6-2 11-3 15-6 3-2 7-5 10-8z m389 98c-6 22-32 22-42 22-12 0-26-2-43-3-21-2-46-5-72-5-59 0-103 12-139 40-64 49-81 134-93 195-10 46-16 77-43 77-27 0-33-32-42-75-12-60-29-142-91-191-37-29-83-43-147-43-22 0-44 2-62 3-15 2-28 2-40 2-12 0-40 0-46-23-8-26 20-42 58-65 51-29 119-69 146-143 28-77-4-163-27-224-19-50-31-81-8-98 5-3 9-4 15-4 19 0 39 18 68 46 45 43 106 103 182 105h1c79 0 143-62 191-105 29-28 48-45 66-45 6 0 11 2 15 5 20 15 8 46-14 94-29 63-67 151-41 231 24 74 97 114 147 143 41 21 69 36 61 61z m-443 246c3 17 7 37 12 46 5-10 9-30 12-49 11-54 27-129 76-186l-37-60c-11 5-23 6-36 8v47c0 8-7 16-15 16-9 0-15-8-15-16v-49c-11-1-22-3-31-8l-42 65c50 57 65 132 76 186z m-213-387c-36 50-90 81-129 104-15 10-37 22-43 30 3 0 8 1 16 1 10 0 23-1 36-1 20-2 42-3 65-3 71 0 125 15 166 49l2 1 37-55c-17-11-33-26-43-43l-46 11c-8 1-17-3-19-11-1-8 3-17 11-18l40-10c-5-10-6-21-8-34l-85-21z m210-213c-79-10-140-70-183-110-14-14-34-33-43-37 0 10 10 38 18 58 23 63 60 158 28 246-3 9-8 19-13 28l66 15c3-34 19-64 43-88l-21-35c-5-8-3-17 4-21 3-2 5-4 8-4 5 0 11 4 14 8l20 32c17-10 37-18 58-20v-72z m17 103c-7 0-13 0-17 2-16 3-30 8-42 15-9 6-17 13-23 20-17 19-28 42-29 68 0 3 0 5 0 8 0 7 1 17 3 24 1 6 3 13 6 19 4 10 9 20 17 27 7 10 17 19 27 25 10 6 19 9 30 12 4 2 9 3 14 3 6 2 10 2 17 2 4 0 9 0 14-2 6 0 12-1 18-3 11-3 20-7 28-12 10-6 20-14 27-23 6-8 13-17 17-28 3-6 5-14 6-20 2-7 3-15 3-23 0-3 0-6 0-9-1-25-12-46-26-65-6-7-15-15-23-20-14-9-30-15-49-18-9-2-14-2-18-2z m235-197c8-18 18-40 22-52-10 6-25 22-39 34-46 43-117 109-203 114v72c23 3 46 11 65 23l21-34c3-4 8-7 13-7 3 0 6 1 7 3 8 4 10 14 5 21l-25 37c22 22 36 51 40 83l62-15c-5-8-8-17-11-26-31-90 14-188 43-253z m120 413c-42-23-97-56-135-106l-79 18c-1 12-4 25-9 35l41 11c8 2 14 11 11 19-1 7-11 13-18 10l-49-12c-11 17-27 31-44 42l33 52c3-2 4-5 7-6 20-16 44-28 70-36s55-10 87-10c28 0 53 3 76 4 15 2 29 3 40 3 3 0 6 0 7 0-4-6-23-15-38-24z" horiz-adv-x="1714" />

<glyph glyph-name="travel-48" unicode="&#xe826;" d="M870 345c115 0 207 94 207 208v18c0 45-35 82-80 82h-254c-44 0-81-37-81-82v-18c0-114 94-208 208-208z m-177 227c0 27 23 50 50 50h254c28 0 51-23 51-50v-19h-2c0-97-80-177-176-177s-177 80-177 177v19z m0-308c24 0 46 20 46 46 0 25-22 46-46 46-27 0-47-20-47-46 0-26 20-46 47-46z m0 61c7 0 15-6 15-15 0-9-8-15-15-15-10 0-16 6-16 15 0 9 6 15 16 15z m306-15c0-26 20-46 46-46s46 20 46 46c0 25-20 46-46 46s-46-20-46-46z m61 0c0-9-6-15-15-15-8 0-15 6-15 15 0 9 7 15 15 15s15-6 15-15z m-104-28h-173c-9 0-15-6-15-15 0-9 6-15 15-15h173c9 0 15 6 15 15 0 9-6 15-15 15z m281-314l-164 165c53 26 89 80 89 143v236c0 161-131 292-292 292s-293-131-293-292v-234c0-63 37-117 89-143l-164-166c-5-5-6-11-3-17s7-10 14-10h90c5 0 8 2 11 5l57 57c2 0 5-2 6-2h385c1 0 4 0 6 2l57-57c3-3 6-5 11-5h90c6 0 13 3 14 10 3 6 2 12-3 16z m-627 544c0 144 116 261 261 261s262-117 262-261v-191c0-58-48-106-106-106h-311c-58 0-106 48-106 106v191z m12-291c24-23 57-37 94-37h310c36 0 70 14 93 37-22-43-65-74-116-74h-264c-53 1-96 31-117 74z m-25-248h-47l149 149c12-3 24-4 38-4h5l-145-145z m105 60l84 85h168l85-85h-337z m441-60l-144 145h4c13 0 26 1 39 4l149-149h-48z" horiz-adv-x="1714" />

<glyph glyph-name="travel-49" unicode="&#xe827;" d="M1288 510l-2 2c0 0-1 0-1 1l-412 285c-5 4-13 4-17 1 0 0-2-1-3-1l-414-286c-2 0-2-2-3-2 0 0 0-2-2-2-1-1-1-3-3-6 0-1 0-1 0-3v-43c0-49 31-92 74-106 8-3 15-3 25-3 18 0 30 5 40 11v-402c0-9 6-15 15-15h554c9 0 15 6 15 15v400c10-6 22-10 40-10 10 0 17 1 25 3 43 14 74 58 74 106v43c0 4-2 9-5 12z m-60 5h-158l-147 210 305-210z m-351 223l156-223h-156v223z m-77-13l-146-210h-158l304 210z m46 13v-223h-155l155 223z m-146-768h-100v405c3 1 8 1 13 1 15 0 23-4 32-12 11-8 25-18 51-18 1 0 3 0 4 0v-376l0 0 0 0z m70 177v-177h-39v383c6 3 11 6 15 9 10 8 17 13 33 13 15 0 23-5 32-13 9-6 19-14 35-17v-107c-44-6-76-45-76-91z m153-177h-123v177c0 34 28 62 62 62 34 0 61-28 61-62v-177z m-47 394c0 0 1 0 1 0s-1 0-1 0z m117-394h-39v177c0 46-34 83-77 91v107c17 3 26 11 36 17 9 8 17 13 32 13 15 0 23-5 32-13 5-3 9-7 16-10v-382z m130 0h-100v375c2 0 3 0 5 0 26 0 40 11 51 19 9 7 17 12 32 12 5 0 9 0 12-1v-405z m139 486c0-35-22-68-52-77-5-1-10-1-16-1-15 0-23 4-32 12-11 8-25 18-51 18s-40-10-51-18c-3-3-6-5-9-6-6-3-12-6-23-6s-17 3-23 6c-3 1-6 4-9 6-11 8-25 18-51 18-26 0-40-10-51-18-3-3-6-5-9-6-6-3-12-6-23-6-11 0-17 3-23 6-3 1-6 4-9 6-11 8-25 18-51 18-26 0-40-10-51-18-3-3-6-5-9-6-6-3-12-6-23-6-11 0-17 1-23 6-3 1-6 4-9 6-11 8-25 18-51 18-26 0-40-12-51-20-9-7-17-12-32-12-6 0-11 2-15 2-31 10-53 41-53 77v27h800v-26z" horiz-adv-x="1714" />

<glyph glyph-name="travel-50" unicode="&#xe828;" d="M870 345c115 0 207 94 207 208v18c0 45-35 82-80 82h-254c-44 0-81-37-81-82v-18c0-114 94-208 208-208z m-177 227c0 27 23 50 50 50h254c28 0 51-23 51-50v-19h-2c0-97-80-177-176-177s-177 80-177 177v19z m0-308c24 0 46 20 46 46 0 25-22 46-46 46-27 0-47-20-47-46 0-26 20-46 47-46z m0 61c7 0 15-6 15-15 0-9-8-15-15-15-10 0-16 6-16 15 0 9 6 15 16 15z m306-15c0-26 20-46 46-46s46 20 46 46c0 25-20 46-46 46s-46-20-46-46z m61 0c0-9-6-15-15-15-8 0-15 6-15 15 0 9 7 15 15 15s15-6 15-15z m-104-28h-173c-9 0-15-6-15-15 0-9 6-15 15-15h173c9 0 15 6 15 15 0 9-6 15-15 15z m281-314l-164 165c53 26 89 80 89 143v236c0 161-131 292-292 292s-293-131-293-292v-234c0-63 37-117 89-143l-164-166c-5-5-6-11-3-17s7-10 14-10h90c5 0 8 2 11 5l57 57c2 0 5-2 6-2h385c1 0 4 0 6 2l57-57c3-3 6-5 11-5h90c6 0 13 3 14 10 3 6 2 12-3 16z m-627 544c0 144 116 261 261 261s262-117 262-261v-191c0-58-48-106-106-106h-311c-58 0-106 48-106 106v191z m12-291c24-23 57-37 94-37h310c36 0 70 14 93 37-22-43-65-74-116-74h-264c-53 1-96 31-117 74z m-25-248h-47l149 149c12-3 24-4 38-4h5l-145-145z m105 60l84 85h168l85-85h-337z m441-60l-144 145h4c13 0 26 1 39 4l149-149h-48z" horiz-adv-x="1714" />

<glyph glyph-name="travel-51" unicode="&#xe829;" d="M1273 304h-267v97h174c31 0 56 25 56 55v269c0 31-25 56-56 56h-644c-31 0-56-25-56-56v-269c0-31 25-55 56-55h172v-97h-266c-8 0-15-8-15-16v-354c0-7 7-15 15-15h831c7 0 15 8 15 15v354c0 8-8 16-15 16z m-737 128c-14 0-25 10-25 24v269c0 14 11 25 25 25h643c14 0 24-11 24-25v-269c0-14-10-25-24-25h-643z m440-31v-97h-237v97h237z m-134-451h-385v146h385v-146z m0 177h-385v146h385v-146z m415-177h-384v146h384v-146z m0 177h-384v146h384v-146z m-238 81h92c9 0 15 7 15 16s-6 15-15 15h-92c-9 0-16-6-16-15s7-16 16-16z m0-173h92c9 0 15 6 15 15 0 9-6 15-15 15h-92c-9 0-16-6-16-15 0-9 7-15 16-15z m-419 173h93c9 0 15 7 15 16s-6 15-15 15h-93c-9 0-15-6-15-15s6-16 15-16z m0-173h93c9 0 15 6 15 15 0 9-6 15-15 15h-93c-9 0-15-6-15-15 0-9 6-15 15-15z" horiz-adv-x="1714" />

<glyph glyph-name="travel-52" unicode="&#xe82a;" d="M1268 293l-72 72 21 22c3 3 5 6 5 9l8 123c0 5-2 10-5 13-3 3-8 4-12 4l-105-6 6 105c0 5-2 9-5 12s-7 5-12 5l-105-6 8 104c0 6-3 13-9 16-6 3-13 1-17-3l-88-88-101 103c-5 5-11 6-17 3-7-3-10-9-10-15l6-105-103 5c-4 0-9-2-12-5s-5-8-5-12l6-105-104 6c-4 0-9-2-12-5-3-3-4-7-4-12l7-123c0-3 2-8 5-9l37-37-134-134c-3-3-5-6-5-11s2-8 5-11l286-286c3-3 8-4 11-4 4 0 7 1 10 4l134 134 73-72c3-3 7-5 10-5 5 0 8 2 11 5l286 286c3 3 5 6 5 11 2 6 0 11-3 12z m-700 128l-6 98 104-6c5 0 10 2 13 5 3 3 4 7 4 12l-6 105 105-8c5 0 9 2 12 5 3 3 5 7 5 12l-6 82 74-74-265-265-34 34z m298-342l-123-123-264 265 121 121 22 22 265 265 21 21 59 59-5-82c0-5 2-9 5-12 3-3 7-5 12-5l105 8-6-105c0-5 1-9 4-12s8-5 13-5l104 6-6-98-17-17-21-22-267-264-22-22z m105-61l-61 61 264 265 62-62-265-264z m72 383l-252-253c-6-6-6-15 0-21 3-3 6-5 11-5 3 0 8 2 11 5l252 252c6 6 6 16 0 22-6 6-15 6-22 0z m-49 72c-6 6-15 6-21 0l-253-254c-6-6-6-15 0-21 3-3 6-5 11-5 5 0 8 2 11 5l252 254c6 6 6 15 0 21z m-71 69c-6 6-15 6-21 0l-252-252c-7-6-7-15 0-22 3-3 6-4 10-4s8 1 11 4l252 253c7 6 7 15 0 21z" horiz-adv-x="1714" />

<glyph glyph-name="travel-53" unicode="&#xe82b;" d="M1273 773h-323c-8 0-16-8-16-15v-293h-492c-8 0-16-7-16-15v-523c0-8 8-15 16-15h831c7 0 15 7 15 15v831c0 9-8 15-15 15z m-339-831h-477v493h477v-493z m162 0h-62v190h62v-190z m92 0h-62v190h62v-190z m69 0h-38v205c0 9-8 15-16 15h-184c-8 0-16-6-16-15v-205h-38v800h292v-800z m-238 297c4 0 7 2 11 5s4 6 4 11-1 7-4 10c-7 6-17 6-22 0-3-3-5-6-5-10s2-8 5-11 6-5 11-5z m184 0c5 0 8 2 11 5s5 6 5 11-2 7-5 10c-6 6-17 6-22 0-3-3-4-6-4-10s1-8 4-11 7-5 11-5z m-184 154c4 0 7 2 11 5 3 3 4 6 4 10 0 5-1 8-4 11-7 6-16 6-22 0-3-3-5-8-5-11 0-4 2-7 5-10 3-3 6-5 11-5z m184 0c5 0 8 2 11 5 3 3 5 6 5 10 0 5-2 8-5 11-6 6-15 6-22 0-3-3-4-8-4-11 0-4 1-7 4-10 4-3 7-5 11-5z m-184 154c4 0 7 2 11 5s4 6 4 10c0 5-1 8-4 11-7 6-16 6-22 0-3-3-5-6-5-11 0-4 2-7 5-10s6-5 11-5z m184 0c5 0 8 2 11 5s5 6 5 10c0 5-2 8-5 11-6 6-17 6-22 0-3-3-4-6-4-11 0-4 1-7 4-10s7-5 11-5z m-184-231c4 0 7 2 11 5s4 6 4 10c0 5-1 8-4 11-7 6-17 6-22 0-3-3-5-7-5-11 0-4 2-7 5-10 3-3 6-5 11-5z m184 0c5 0 8 2 11 5s5 6 5 10c0 5-2 8-5 11-6 6-17 6-22 0-3-3-4-7-4-11 0-4 1-7 4-10 4-3 7-5 11-5z m-184 154c4 0 7 2 11 5s4 6 4 10c0 5-1 8-4 11-7 6-16 6-22 0-3-3-5-6-5-11s2-7 5-10 6-5 11-5z m184 0c5 0 8 2 11 5s5 6 5 10c0 5-2 8-5 11-6 6-17 6-22 0-3-3-4-8-4-11 0-4 1-7 4-10s7-5 11-5z m-184 154c4 0 7 2 11 5s4 6 4 10c0 5-1 8-4 11-7 6-17 6-22 0-3-3-5-8-5-11 0-4 2-7 5-10s6-5 11-5z m184 0c5 0 8 2 11 5s5 6 5 10c0 5-2 8-5 11-6 6-17 6-22 0-3-3-4-8-4-11 0-4 1-7 4-10s7-5 11-5z m-653-297h292c9 0 15 6 15 15 0 10-6 16-15 16h-292c-10 0-16-6-16-16 0-9 6-15 16-15z m0-108h292c9 0 15 6 15 16 0 9-6 15-15 15h-292c-10 0-16-6-16-15 0-10 6-16 16-16z m0-107h292c9 0 15 6 15 15s-6 15-15 15h-292c-10 0-16-6-16-15s6-15 16-15z m0-108h292c9 0 15 6 15 15 0 10-6 16-15 16h-292c-10 0-16-6-16-16 0-9 6-15 16-15z" horiz-adv-x="1714" />

<glyph glyph-name="travel-54" unicode="&#xe82c;" d="M1304 262v3c0 20-16 37-37 37h-28v457h-305v26h-30v-25h-35v25h-30v-25h-35v25h-30v-25h-35v25h-30v-25h-35v25h-30v-25h-35v25h-30v-25h-35v25h-30v-25h-49v-31h49v-29h30v29h35v-29h30v29h35v-29h30v29h35v-29h30v29h35v-29h30v29h35v-29h30v29h35v-29h30v29h57c0-24 10-46 28-63 27-26 71-40 110-47-101-61-142-215-158-317h-76c-1 8-4 16-10 23l-1 1c-14 14-37 14-51 0l-23-23h-86l-50 47c-20 20-54 20-74 0l-49-49h-104c-20 0-37-16-37-37v-3c0-94 46-177 117-228v-3c0-22-8-42-24-58-8-8-21-8-29 0l-13 13-22-22 13-13c10-10 23-15 36-15 13 0 27 5 37 16 17 17 28 40 32 64 40-22 86-34 134-34h331c48 0 93 12 133 34 3-24 14-46 32-64 10-10 23-15 37-15 13 0 26 5 37 15l13 13-22 22-13-13c-8-8-21-8-29 1-15 15-24 36-24 57v3c71 50 118 133 118 228z m-264 425c-12 12-18 25-18 41h187v-87c-42 1-131 9-169 46z m168-77v-390h-215c6 74 41 378 215 390z m-430-340l-12-12-12 12h24z m244-258h-330c-138 0-250 112-250 250v3c-1 3 2 5 5 5h209l113-113 112 113h85c-5-36-6-61-6-65l-1-16h280v81h28c3 0 5-2 5-5v-3c1-138-112-250-250-250z m-142 425c13-10 30-15 46-14 20 2 38 12 51 28 13 16 18 35 16 55-3 24-13 46-33 61-19 15-42 22-66 19-20-2-38-10-54-21-14 39-54 65-97 60-40-4-70-40-66-81 2-16 9-30 21-40 12-9 24-13 37-13 2 0 4 0 6 0 27 3 45 26 44 53-2 22-22 38-44 35-9-1-17-5-23-12l23-19c0 1 1 1 2 1 3 0 5 0 7-2 1-2 3-4 3-6 1-10-7-19-17-20-16-2-30 10-31 26-2 24 15 45 38 48 35 4 65-22 69-56-13-19-20-42-19-67 0-2 0-4 0-6v-90h30v91 2c0 2 0 3 0 5-2 42 29 78 70 82 16 2 32-3 44-13 13-10 20-24 22-40 1-12-2-24-10-33-8-9-18-15-30-17-9-1-17 2-24 7-7 6-11 13-12 22-1 6 1 12 5 17 4 5 13 9 20 9 4 0 8-1 12-3 3-3 5-6 6-11l30 3c-1 12-7 23-17 31s-22 11-34 10c-14-2-27-9-36-20-9-11-13-25-12-39 2-17 10-32 23-42z m-28 1v-60h20v40c-1 1-3 2-5 4-6 5-11 10-15 16z m-100-60h20v104c-6-4-12-7-20-8v-96z" horiz-adv-x="1714" />

<glyph glyph-name="travel-55" unicode="&#xe82d;" d="M1079 263h-9v64c0 20-17 36-37 36h-4v141c0 7-5 13-12 15l-10 2c-324 62-570-2-572-2-7-2-11-8-11-15v-141h-3c-20 0-37-16-37-36v-64h-9c-7 0-13-6-13-13v-18c0-7 6-13 13-13h9v-57c0-5 4-9 9-9h17c4 0 8 3 9 7l19 60h577l19-60c1-4 5-7 9-7h17c5 0 9 4 9 9v57h9c7 0 13 6 13 13v18c1 7-4 13-12 13z m-625 229c51 11 268 52 546 0v-129h-65v20c0 28-23 51-51 51h-71c-28 0-51-23-51-51v-20h-72v20c0 28-23 51-51 51h-71c-28 0-51-23-51-51v-20h-63v129z m587-229h-627v64c0 3 3 6 7 6h613c4 0 7-3 7-6v-64z m261 141h-157c-28 0-50-22-50-50v-76c0-24 17-43 39-49v-33c0-3 2-5 5-5h20c3 0 5 2 5 4l6 33h106l6-33c0-3 3-4 5-4h20c3 0 5 2 5 5v34c22 5 39 25 39 49v76c1 27-21 49-49 49z m21-126c-1-11-10-20-21-20h-157c-11 0-20 9-20 20v23h198v-23z m0 53h-198v23c0 11 9 20 20 20h158c11 0 20-9 20-20v-23z" horiz-adv-x="1714" />

<glyph glyph-name="travel-56" unicode="&#xe82e;" d="M1489 40h-199v44h155c0 0 0 0 0 0 12 0 22 10 22 22 0 0 0 1 0 1 0 173-63 334-177 453-110 117-260 183-422 189v44h89c12 0 22 10 22 23s-10 22-22 22h-222c-12 0-22-10-22-22s10-23 22-23h89v-44c-162-6-311-72-422-188-114-120-177-282-177-455 0-12 10-22 22-22h155v-44h-199c-12 0-22-10-22-23v-133c0-12 10-22 22-22h1286c12 0 22 10 22 22v133c0 13-10 23-22 23z m-643 665c316 0 565-252 576-577h-155-842-155c11 325 260 577 576 577z m-399-621h798v-44h-798v44z m1020-177h-1242v88h200 842 200v-88z m-706 702c12 2 20 13 18 26-2 12-14 20-26 18-98-18-189-63-263-132-73-67-127-155-154-254-4-11 3-24 15-27 2-1 4-1 6-1 10 0 19 6 21 16 53 186 200 321 383 354z" horiz-adv-x="1714" />

<glyph glyph-name="travel-57" unicode="&#xe82f;" d="M857 543c-64 0-125-26-171-72s-72-107-72-172c0-64 25-125 72-171 46-47 107-72 171-72 64 0 126 25 172 72 46 46 72 107 72 171 0 65-26 126-72 172s-108 72-172 72z m0-442c-107 0-199 91-199 198 0 108 92 199 199 199 108 0 199-91 199-199 0-107-91-198-199-198z m545 269v452c0 9-5 17-14 20-8 4-18 2-24-4-56-57-87-131-87-210v-123c0-46 11-92 31-133l3-6c-21-15-34-39-34-67v-362c0-45 37-82 83-82 45 0 82 37 82 82v362c0 31-16 57-40 71z m-80 258c0 46 12 91 35 129v-375h-4l-5 10c-17 35-26 74-26 113v123z m76-690c0-21-17-38-38-38-21 0-39 17-39 38v361c0 21 17 38 39 38 20 0 38-17 38-38v-361z m-963 886c-12 0-22-10-22-22v-221c0-24-15-45-36-54v275c0 12-10 22-22 22s-22-10-22-22v-275c-21 9-36 30-36 54v221c0 12-10 22-22 22-13 0-23-10-23-22v-221c0-49 35-90 81-100v-102c-35-10-61-42-61-79v-362c0-46 37-83 83-83s83 37 83 83v361c0 38-26 70-61 80v101c46 11 81 52 81 101v221c0 12-10 22-23 22z m-42-525v-362c0-20-17-38-38-38s-38 17-38 38v362c0 21 17 38 38 38s38-17 38-38z m-58-80c0-11 9-20 20-20s20 9 20 20-9 20-20 20-20-9-20-20z m1025 20c-12 0-21-9-21-20s9-20 21-20 20 9 20 20-9 20-20 20z m-503 445c-102 0-199-40-271-113s-113-169-113-271c0-212 172-385 384-385 212 0 384 173 384 385 0 102-40 199-112 271-73 73-169 113-272 113z m0-724c-187 0-339 153-339 340 0 187 152 339 339 339 187 0 340-152 340-339 0-187-153-340-340-340z" horiz-adv-x="1714" />

<glyph glyph-name="travel-58" unicode="&#xe830;" d="M999 317l295 309c7 6 8 16 5 24-4 8-12 14-21 14h-209l32 89 151 45c12 4 19 16 15 28-3 12-16 19-28 15l-161-49c-7-2-13-7-15-13l-41-115h-338c-11 64-67 113-134 113-75 0-136-61-136-135s61-136 136-136c23 0 46 6 66 17l197-206c25-26 38-60 38-96v-176c0-51-30-96-77-115l-71-28c-10-4-15-15-13-25 2-11 11-18 22-18h388c0 0 0 0 0 0 12 0 22 10 22 22 0 9-6 18-14 21l-70 28c-47 19-77 64-77 115v176c0 35 13 70 38 96z m-82-74h-23c0 2 0 5-1 7-6 37-22 70-48 98l-5 5-75 78c6 5 13 10 19 16 0 0 1 0 1 1 16 16 36 25 56 25 19 0 35-8 47-23 11-16 26-27 44-34l-15-42c-4-12 2-25 13-29 3-1 5-1 8-1 9 0 18 6 21 15l18 50c24 1 49 9 71 24l-82-85c-27-29-44-66-49-105z m309 376l-97-101c-34 0-68-14-93-38-12-11-27-19-42-23l59 162h173z m-279-161c-9 3-17 9-22 18 0 0-1 0-1 1-20 26-50 41-83 41-32 0-63-14-88-39-6-6-13-11-20-14l-98 102c0 0 0 0 0 0l-49 52h77 0 343l-59-161z m-397 92c-50 0-91 41-91 91s41 91 91 91c42 0 78-29 88-68h-104c-3 0-6-1-8-2-6-2-11-6-13-12-3-6-2-13 1-19 0 0 0 0 0 0 0-1 0-1 1-1 0 0 0 0 0 0 0-1 0-1 0-2 1 0 1 0 1 0 0 0 0-1 0-1 1 0 1 0 1-1 0 0 0 0 1 0l65-69c-10-4-22-7-33-7z m443-647h-174c48 30 77 83 77 141v154h20v-154c0-58 29-110 77-141z" horiz-adv-x="1714" />

<glyph glyph-name="travel-59" unicode="&#xe831;" d="M857 227c-39 0-70-31-70-70s31-71 70-71c39 0 71 32 71 71s-32 70-71 70z m0-96c-14 0-26 11-26 26s12 26 26 26 26-12 26-26-11-26-26-26z m0 225c-53 0-103-20-141-58-4-4-6-10-6-16 0-6 2-12 6-16l46-45c4-4 10-7 16-7 0 0 0 0 0 0 5 0 11 2 15 7 17 17 40 26 64 26 24 0 47-9 64-26 4-4 10-7 16-7 0 0 0 0 0 0 6 0 11 2 16 7l45 45c4 4 7 10 7 16 0 6-3 12-7 16-37 37-87 58-141 58z m79-89c-23 16-50 25-79 25-28 0-55-9-78-25l-14 14c26 20 59 30 92 30 34 0 66-10 93-30l-14-14z m-79 218c-87 0-170-34-232-96-4-4-6-10-6-16 0-6 2-11 6-15l46-46c4-4 10-7 15-7s12 3 16 7c42 41 97 64 155 64 59 0 114-23 155-64 4-4 10-7 16-7s12 3 16 7l45 46c4 4 7 9 7 15s-3 12-7 16c-62 62-144 96-232 96z m171-127c-48 41-108 63-171 63-63 0-122-22-170-63l-14 15c52 44 116 68 184 68 69 0 133-24 185-68l-14-15z m153 122c-87 86-202 134-324 134-122 0-236-48-323-134-9-9-9-23 0-32l46-45c8-9 23-9 31 0 66 66 154 102 246 102 93 0 181-36 246-102 5-5 10-7 16-7 6 0 12 2 16 7l45 45c5 4 7 10 7 16 0 6-2 12-6 16z m-62-30c-72 64-164 100-262 100-97 0-189-36-261-100l-14 14c76 68 173 105 276 105 102 0 199-37 275-105l-14-14z m84 246c-92 93-215 144-346 144s-253-51-346-144-143-215-143-346 51-254 143-346 215-144 346-144c131 0 254 51 347 144 92 92 143 215 143 346s-51 254-144 346z m-346-791c-245 0-445 200-445 445 0 245 200 445 445 445 246 0 445-200 445-445 0-245-199-445-445-445z" horiz-adv-x="1714" />

<glyph glyph-name="travel-60" unicode="&#xe832;" d="M1298 276l-83 319c-2 7-4 13-5 19-7 28-14 57-30 83-50 83-147 136-249 139-2 0-5 0-7 0h-133c-2 0-5 0-8 0-101-3-198-57-248-139-17-27-24-55-30-83-2-6-3-13-5-19l-84-319c-7-29 10-59 39-67l62-16c5-2 9-2 14-2 25 0 46 16 53 40l59 214v-89c-18-3-32-19-32-38v-32c0-19 14-34 32-37v-330c0-30 25-55 55-55h319c30 0 55 25 55 55v329c18 3 32 19 32 38v32c0 19-14 35-32 38v89l59-214c7-24 28-40 53-40 0 0 0 0 0 0 4 0 9 0 14 2l62 16c28 8 46 38 38 67z m-383 515l-58-212-58 212h116z m-16-479v-42-42h-19v84h19z m150 0h10v-20h-10-105v20h105z m-214-106v-41h-19v105 42h9c0 0 0 0 0 0 0 0 0 0 0 0h10v-106z m-179 86v20h9 106v-20h-106-9z m-48 195l-68-244c-1-5-6-8-11-7l-63 17c-5 1-8 6-6 11l83 320c2 7 3 13 5 20 6 25 12 49 25 70 37 61 106 104 181 115l80-296-27-137h-14-105v120c0 22-18 40-41 40-18 0-34-12-39-29z m419-569c0-5-4-9-10-9h-320c-5 0-9 4-9 9v330h83v-90c0-21 17-38 38-38h32c21 0 39 17 39 38v26h25c21 0 39 17 39 38v26h83v-330z m221 335l-62-17c-1 0-2 0-3 0-4 0-8 2-9 7l-68 244c-5 17-21 29-39 29-22 0-40-18-40-40v-120h-106-64-5l27 133 82 300c75-11 144-54 181-115 13-21 18-45 25-70 1-7 3-13 4-20l84-320c1-5-2-10-7-11z" horiz-adv-x="1714" />

<glyph glyph-name="travel-61" unicode="&#xe833;" d="M1529 31h-72v731c0 39-31 70-70 70h-1084c-38 0-69-31-69-70v-731h-72c-12 0-22-10-22-23v-71c0-38 31-69 69-69h1272c39 0 70 31 70 69v71c0 13-10 23-22 23z m-1251 731c0 14 12 25 25 25h1084c14 0 25-11 25-25v-731h-378c-13 0-23-10-23-23v-25h-332v25c0 13-10 23-22 23h-379v731z m1228-824c0-14-11-25-25-25h-1272c-14 0-25 11-25 25v48h72 378v-25c0-1 1-3 1-4 2-10 11-18 22-18h377c12 0 22 10 22 22v25h378 72v-48z m-377 567c9-9 23-9 32 0 9 8 9 22 0 31-174 174-457 174-631 0-9-9-9-23 0-31 4-5 10-7 15-7 6 0 12 2 16 7 157 156 412 156 568 0z m-83-84c9-8 23-8 32 0 8 9 8 23 0 32-128 128-337 128-465 0-9-9-9-23 0-32 4-4 10-6 16-6 5 0 11 2 15 6 111 111 291 111 402 0z m-350-51c-9-9-9-23 0-32 4-4 10-7 16-7 6 0 11 2 16 7 64 65 170 65 235 0 8-9 22-9 31 0 9 9 9 23 0 32-82 82-216 82-298 0z m149-57c-51 0-93-41-93-93 0-51 42-93 93-93s93 42 93 93c0 52-42 93-93 93z m0-141c-26 0-48 22-48 48 0 27 22 49 48 49s49-22 49-49c0-26-22-48-49-48z" horiz-adv-x="1714" />

<glyph glyph-name="travel-62" unicode="&#xe834;" d="M1468 833h-1245c-37 0-68-30-68-68v-461c0-38 31-68 68-68h1245c37 0 68 30 68 68v461c0 38-31 68-68 68z m23-529c0-13-10-24-23-24h-1245c-13 0-23 11-23 24v461c0 13 10 23 23 23h1245c13 0 23-10 23-23v-461z m-738 323h185c12 0 22 10 22 23s-10 22-22 22h-185c-12 0-22-10-22-22s10-23 22-23z m668-255h-1151c-13 0-23-10-23-22s10-22 23-22h1151c13 0 23 10 23 22s-10 22-23 22z m0 93h-1151c-13 0-23-10-23-23s10-22 23-22h1151c13 0 23 10 23 22s-10 23-23 23z m-565-395c-22 12-34 25-34 38 0 13 12 27 34 38 11 6 15 19 9 30-5 11-19 15-30 10-37-20-58-47-58-78 0-30 21-58 58-77 22-12 34-25 34-38 0-13-12-27-34-38-11-6-15-19-9-30 4-8 12-12 20-12 3 0 7 1 10 2 37 20 58 47 58 78 0 30-21 58-58 77z m-254-46c-21 12-34 25-34 38 0 13 13 27 34 38 11 6 16 19 10 30-6 11-19 15-30 10-38-20-58-47-58-78 0-31 20-58 58-78 21-11 34-25 34-37 0-13-12-27-34-38-11-6-15-19-10-30 4-8 12-12 20-12 4 0 7 0 10 2 38 20 59 47 59 78-1 30-21 58-59 77z m507 0c-21 12-34 25-34 38 0 13 12 27 34 38 11 6 15 19 10 30-6 11-19 15-30 10-38-20-59-47-59-78 0-31 21-58 59-78 21-11 34-25 34-37s-13-27-34-38c-11-6-16-19-10-30 4-8 12-12 20-12 3 0 7 0 10 2 38 20 58 47 58 78s-20 58-58 77z" horiz-adv-x="1714" />

<glyph glyph-name="travel-63" unicode="&#xe835;" d="M960 468c-30 0-54-34-54-78 0-45 24-78 54-78s55 33 55 78c0 44-24 78-55 78z m0-111c-3 4-9 15-9 33s6 29 9 33c4-4 10-15 10-33s-6-29-10-33z m150 91c0 0 0 0 0 1 0 0 0 1 0 1 0 0-1 1-1 1 0 0 0 1 0 1 0 0 0 1 0 1-1 0-1 1-1 1 0 1 0 1 0 1 0 0 0 1-1 1 0 0 0 1 0 1 0 0-1 1-1 1 0 0 0 1 0 1-1 0-1 1-1 1 0 0-1 1-1 1 0 0 0 0 0 0 0 0 0 0 0 0-1 1-1 2-2 2 0 0-1 0-1 0 0 1 0 1-1 1 0 0 0 1 0 1-1 0-1 0-1 0-1 0-1 1-1 1-1 0-1 0-2 0 0 0 0 0 0 1-1 0-1 0-1 0-1 0-1 0-2 0 0 0 0 0-1 1 0 0 0 0-1 0 0 0 0 0-1 0 0 0-1 0-2 0 0 0 0 0 0 0 0 0 0 0 0 0-1 0-2 0-2 0-1 0-1 0-1 0-1 0-1 0-1 0-1 0-1-1-1-1-1 0-1 0-2 0 0 0 0 0-1 0 0-1 0-1-1-1 0 0 0 0-1 0 0 0 0-1-1-1 0 0 0 0-1 0 0 0 0-1 0-1-1 0-1 0-1-1-1 0-1 0-1 0-1-1-1-1-2-2 0 0 0 0 0 0l-32-31c-8-9-8-23 0-32 5-4 10-7 16-7 3 0 7 1 10 3v-60c0-12 10-22 22-22s22 10 22 22v112c0 0 0 1 0 2z m-54 306h-52c-27 47-73 80-139 80-66 0-113-33-139-80-2 0-3 0-4 0-109 0-198-88-198-197 0-72 39-134 96-169v-149c0-6 2-12 6-16l17-16-17-16c-8-9-8-23 0-32l17-16-17-16c-4-4-6-10-6-16s2-11 6-15l17-16-17-16c-4-4-6-10-6-16 0-6 2-12 6-16l17-16-17-16c-8-9-8-23 0-32l17-16-17-16c-8-9-8-23 0-31l32-32c4-4 10-7 16-7h64c0 0 1 0 2 0 0 0 1 0 1 0 0 1 1 1 2 1 0 0 0 0 0 0 1 0 2 0 2 1 1 0 1 0 1 0 1 1 3 1 4 2 1 0 1 0 1 0 0 1 1 1 1 2 1 0 1 0 1 0 0 1 1 1 1 2 1 0 1 0 1 0 0 1 1 1 1 2l64 96c2 3 4 8 4 12v404c6 4 13 8 19 13v-67c0-65 52-118 117-118h96c65 0 118 53 118 118v302c0 65-53 118-118 118z m-191 35c37 0 65-14 85-35-37-4-71-25-90-56-24 23-53 40-85 49 19 25 49 42 90 42z m-161-150c4-6 11-9 18-9s13 3 17 9c5-5 8-11 8-18 0-15-11-26-25-26s-26 12-26 26c0 7 3 13 8 18z m-30-719l16 16c4 4 6 10 6 16s-2 12-6 16l-16 16 16 16c4 4 6 10 6 16s-2 11-6 15l-16 17 16 16c4 4 6 9 6 15s-2 12-6 16l-16 16 16 16c4 4 6 10 6 16s-2 12-6 16l-16 16 16 16c8 9 8 23 0 31l-26 26v120c6-2 13-3 19-5 0 0 0 0 0 0 2 0 4 0 5-1 1 0 2 0 2 0 1 0 3-1 5-1 0 0 1 0 1 0 2 0 4 0 6-1 0 0 1 0 2 0 1 0 2 0 4 0 0 0 1 0 2 0 1 0 3 0 4 0 0 0 1 0 1 0v-449h-32l-9 9z m105 71l-19-29v401c6 2 13 3 19 5v-377z m13 430c0 0-1 0-1 0-17-9-36-14-55-16 0 0 0 0-1 0-3 0-5-1-8-1-2 0-4 0-5 0-3 0-5 0-7 0-1 0-1 0-2 0-2 1-4 1-6 1-1 0-1 0-2 0-2 0-4 1-6 1-1 0-1 0-2 0-1 0-3 1-5 1-1 0-2 0-2 1-2 0-3 0-5 0-11 3-22 7-33 13 0 0 0 0-1 0-49 26-82 77-82 136 0 79 61 145 138 152-2-7-4-14-5-21-29-8-51-35-51-67 0-39 32-70 70-70s70 31 70 70c0 29-18 55-44 65 1 7 3 14 6 20 39-8 73-31 95-63 0-1 0-1 1-2 1-1 2-3 3-4 0-1 0-1 1-2 0-1 1-3 2-4 0-1 1-1 1-2 1-2 2-4 3-6 0 0 0 0 0 0 1-2 2-4 3-6 0-1 0-1 0-2 1-1 2-3 2-5 1 0 1-1 1-1 1-4 3-9 4-13 0-1 0-1 0-2 1-2 1-4 2-5 0-1 0-1 0-2 0-2 1-4 1-6 0-1 0-1 0-1 0-2 1-4 1-7 0 0 0-1 0-2 0-1 0-3 0-5 0-1 0-1 1-2 0-2 0-4 0-7 0-2 0-4 0-7 0 0 0-1-1-2 0-2 0-3 0-5 0-1 0-1 0-2 0-2-1-4-1-6 0-1 0-1 0-2 0-2-1-4-1-6 0-1 0-1-1-2 0-2 0-3 0-4-1-1-1-2-1-3-1-2-1-3-1-4-2-4-3-9-5-13 0 0 0-1 0-1-1-2-2-4-2-5 0 0-1 0-1-1-4-8-8-17-14-25 0 0 0 0 0 0-14-20-32-36-54-48z m337-87c0-40-33-73-73-73h-96c-40 0-73 33-73 73v116c10 15 18 33 24 51 0 0 0 0 0 0 1 5 2 9 3 13 0 1 1 1 1 1 0 3 0 5 1 7 0 0 0 0 0 0 0 2 0 4 1 6 0 1 0 1 0 2 0 1 1 3 1 5 0 0 0 1 0 1 0 2 0 4 0 7 0 0 0 0 0 1 1 2 1 3 1 5 0 1 0 1 0 2 0 2 0 4 0 6 0 2 0 4 0 6 0 1 0 2 0 2 0 2 0 3 0 5 0 0 0 1-1 1 0 2 0 4 0 7 0 0 0 0 0 0 0 2 0 4-1 6 0 0 0 1 0 2 0 1-1 2-1 4 0 0 0 1 0 2-1 1-1 3-1 5 0 1-1 1-1 2 0 1 0 3-1 4 0 1 0 2 0 2 0 1-1 3-1 4 0 1 0 1-1 2 0 2-1 4-1 5 0 1-1 2-1 3 0 1-1 2-1 3 0 1-1 2-1 3 0 0-1 1-1 2-1 2-1 3-2 5 0 1-1 2-1 3 0 1-1 1-1 2-1 1-1 2-1 3-1 1-1 2-2 3 0 1-1 3-2 4 0 1-1 2-1 3-1 0-1 1-2 2 0 1-1 2-1 3-1 0-1 1-1 2-1 1-1 1-2 2 11 29 40 51 70 51h16c3-8 5-16 6-24-26-11-44-36-44-66 0-38 31-70 70-70 38 0 70 32 70 70 0 32-22 59-51 68-1 7-3 14-5 22h34c40 0 73-33 73-74v-302z m-95 287c0-15-12-26-26-26-14 0-25 12-25 26 0 7 3 13 8 18 4-6 10-9 17-9 7 0 14 3 18 9 5-5 8-11 8-18z" horiz-adv-x="1714" />

<glyph glyph-name="travel-64" unicode="&#xe836;" d="M1271 616h-383l110 178c6 10 3 24-8 30-10 7-24 4-30-7l-112-181-127 182c-7 10-21 13-31 5-10-7-13-20-6-31l123-176h-381c-39 0-71-32-71-71v-553c0-39 32-71 71-71h10v-26c0-13 10-23 23-23s22 10 22 23v26h736v-26c0-13 10-23 22-23s22 10 22 23v26h10c40 0 72 32 72 71v553c-1 39-32 71-72 71z m27-624c0-14-12-26-27-26h-845c-15 0-26 12-26 26v553c0 15 11 26 26 26h845c15 0 27-11 27-26v-553z m-319 559h-455c-58 0-104-46-104-103v-358c0-57 46-104 104-104h455c57 0 103 47 103 104v358c0 57-46 103-103 103z m59-461c0-33-27-59-59-59h-455c-33 0-59 26-59 59v358c0 32 26 58 59 58h455c32 0 59-26 59-58v-358z m87 335h130c12 0 22 10 22 23s-10 22-22 22h-130c-12 0-22-10-22-22s10-23 22-23z m0-65h130c12 0 22 10 22 23s-10 22-22 22h-130c-12 0-22-10-22-22s10-23 22-23z m0-65h130c12 0 22 10 22 23s-10 22-22 22h-130c-12 0-22-10-22-22s10-23 22-23z m130-20h-130c-12 0-22-10-22-22v-130c0-13 10-23 22-23h130c12 0 22 10 22 23v130c0 12-10 22-22 22z m-22-130h-86v85h86v-85z m-676 335l-65-65c-9-9-9-23 0-32 4-4 10-7 15-7 6 0 12 3 16 7l65 65c9 9 9 23 0 32-9 8-23 8-31 0z m-49-130l-17-17c-8-8-8-23 0-31 5-5 10-7 16-7s12 2 16 7l16 16c9 9 9 23 0 32-8 8-23 8-31 0z m146 146l-49-49c-8-9-8-23 0-31 5-5 10-7 16-7s12 2 16 7l49 48c8 9 8 23 0 32-9 9-23 9-32 0z" horiz-adv-x="1714" />

<glyph glyph-name="travel-65" unicode="&#xe837;" d="M1342-52l-46 359c-3 28-26 49-54 49h-32l16 33c4 7 3 15-1 22-4 6-10 10-18 10 3 9 5 18 5 27 0 39-30 70-68 71-10 28-36 49-68 49-10 0-20-2-29-7-1 2-2 3-3 4l90 40c6 3 10 7 12 13 2 5 2 11 0 17-48 106-155 176-273 176-34 0-68-6-101-18l-2 5 7 3c11 5 16 18 11 29-5 11-18 16-29 11l-57-25c-11-5-16-18-11-30 3-8 11-13 20-13 3 0 6 1 9 2l9 4 2-4c-135-74-193-240-130-383 0-1 0-2 1-3l16-33h-32c-28 0-51-21-54-49l-14-113h-41l-28 144c-2 11-11 18-22 18h-32c-13 0-23-10-23-22s10-22 23-22h14l28-145c2-10 11-18 22-18h53l-26-202c-1-7 1-13 5-18 5-4 11-7 17-7h28c-1-3-1-7-1-10 0-30 25-55 55-55s55 25 55 55c0 3-1 7-1 10h541c0-3-1-7-1-10 0-30 25-55 55-55 30 0 55 25 55 55 0 3-1 7-1 10h27c0 0 0 0 0 0 13 0 23 10 23 22-1 2-1 3-1 4z m-285 567c5 5 12 8 19 8 15 0 26-11 27-25 0-1 0-2 0-3-1-7 3-15 9-19 6-5 14-6 21-3 3 1 6 2 9 2 14 0 26-12 26-27s-12-26-26-26h-416l262 117h7c11 0 21-7 25-17 3-7 9-13 17-14 7-2 15 1 20 7z m-287 229c0 0 0 0 0 0 0 0 0 0 0 0 33 15 68 22 103 22 93 0 177-50 222-130l-461-207c-43 123 15 261 136 315z m-112-367h512l-10-20h-492l-10 20z m-68-475c-6 0-11 4-11 10 0 5 5 10 11 10s10-4 10-10c0-6-5-10-10-10z m659 10c0-6-5-10-10-10-6 0-11 4-11 10 0 5 5 10 11 10 5 0 10-5 10-10z m-23 55l-30 240c-2 12-13 21-25 19-12-1-21-12-20-25l30-234h-100l-15 238c0 13-11 22-23 21-13 0-22-11-21-23l14-236h-100v237c0 12-10 22-22 22s-22-10-22-22v-237h-100l15 236c0 12-9 22-21 23-13 1-23-8-24-21l-15-238h-100l29 234c2 13-7 24-19 25-12 2-23-7-25-19l-30-240h-69l43 335c0 0 0 0 0 1 1 5 5 9 10 9h68c0 0 0 0 0 0h520c0 0 0 0 0 0h67c6 0 10-4 10-9 0-1 0-1 0-1l43-335h-68z m-562 500c1 0 2 0 2 0 13 1 22 13 20 25-9 81 36 159 110 193 12 5 17 18 12 29s-18 16-30 11c-46-20-83-54-107-98-25-43-34-91-29-140 1-11 11-20 22-20z" horiz-adv-x="1714" />

<glyph glyph-name="travel-67" unicode="&#xe838;" d="M1316 321h-11v352c0 87-71 158-159 158-42 0-79-17-105-48-19-24-32-55-35-90-40-10-69-45-69-88 0-12 10-22 22-22h136c13 0 23 10 23 22 0 42-29 77-67 87 6 50 36 95 95 95 63 0 114-51 114-114v-352h-502c-10 39-44 67-85 68-17 22-43 34-71 34-32 0-61-17-77-44-13 7-27 11-42 11-42 0-77-29-87-69-30-1-54-26-54-56 0-31 25-56 56-56h17l45-178c13-56 63-94 120-94h3l-18-36c-5-11-1-24 10-30 4-1 7-2 10-2 9 0 16 4 20 12l28 56h466l28-56c4-8 11-12 20-12 3 0 6 1 10 2 11 6 15 19 10 30l-19 37c52 5 95 42 108 93l44 178h17c31 0 56 25 56 56s-26 56-57 56z m-249 306h-79c7 14 22 24 39 24s32-10 40-24z m-510-288c4 23 23 40 45 40 17 0 32-9 40-24 4-8 13-12 22-11l2 0c2 0 3 1 4 1 17 0 32-10 40-24h-168c8 3 14 10 15 18z m-74 6c14 0 26-6 35-17 3-3 6-5 10-7h-85c8 14 23 24 40 24z m729-303c-9-36-41-61-77-61h-555c-37 0-69 25-77 61l-42 167h793l-42-167z m104 211h-34-850-34c-6 0-11 6-11 12s5 12 11 12h17 323 578c7 0 12-6 12-12s-5-12-12-12z m-357 253c13 0 23 10 23 23v8c0 13-10 23-23 23s-22-10-22-23v-8c0-13 10-23 22-23z m0-144c13 0 23 10 23 22v9c0 7-4 13-9 17 5 4 9 10 9 18v2c0 1 0 2-1 3 1 1 1 2 1 3v2c0 1 0 2-1 3 1 1 1 2 1 3v2c0 1 0 2-1 3 1 1 1 2 1 3v2c0 1 0 2-1 3 1 1 1 2 1 3v2c0 1 0 2-1 3 1 1 1 2 1 3v2c0 12-10 22-23 22s-22-10-22-22v-2c0-1 0-2 0-3 0-1 0-2 0-3v-2c0-1 0-2 0-3 0-1 0-2 0-3v-2c0-1 0-2 0-3 0-1 0-2 0-3v-2c0-1 0-3 0-3 0-1 0-2 0-3v-2c0-1 0-3 0-3 0-2 0-2 0-3v-2c0-8 3-14 8-18-5-4-8-10-8-17v-9c0-12 10-22 22-22z m68 144c13 0 23 10 23 23v8c0 13-10 23-23 23s-22-10-22-23v-8c0-13 10-23 22-23z m-22-113v-9c0-12 10-22 22-22s23 10 23 22v9c0 7-4 13-9 17 5 4 9 10 9 18v2c0 1 0 2 0 3 0 1 0 2 0 3v2c0 1 0 2 0 3 0 1 0 2 0 3v2c0 1 0 2 0 3 0 1 0 2 0 3v2c0 1 0 2 0 3 0 1 0 2 0 3v2c0 1 0 2 0 3 0 1 0 2 0 3v2c0 12-10 22-23 22s-22-10-22-22v-2c0-1 0-2 0-3 0-1 0-2 0-3v-2c0-1 0-2 0-3 0-1 0-2 0-3v-2c0-1 0-2 0-3 0-1 0-2 0-3v-2c0-1 0-3 0-3 0-1 0-2 0-3v-2c0-1 0-3 0-3 0-2 0-2 0-3v-2c0-8 3-14 8-18-5-4-8-10-8-17z m90 113c13 0 23 10 23 23v8c0 13-10 23-23 23s-22-10-22-23v-8c0-13 10-23 22-23z m-22-113v-9c0-12 10-22 22-22s23 10 23 22v9c0 7-3 13-9 17 6 4 9 10 9 18v2c0 1 0 2 0 3 0 1 0 2 0 3v2c0 1 0 2 0 3 0 1 0 2 0 3v2c0 1 0 2 0 3 0 1 0 2 0 3v2c0 1 0 2 0 3 0 1 0 2 0 3v2c0 1 0 2 0 3 0 1 0 2 0 3v2c0 12-10 22-23 22s-22-10-22-22v-2c0-1 0-2 0-3 0-1 0-2 0-3v-2c0-1 0-2 0-3 0-1 0-2 0-3v-2c0-1 0-2 0-3 0-1 0-2 0-3v-2c0-1 0-3 0-3 0-1 0-2 0-3v-2c0-1 0-3 0-3 0-2 0-2 0-3v-2c0-8 3-14 8-18-5-4-8-10-8-17z" horiz-adv-x="1714" />

<glyph glyph-name="travel-68" unicode="&#xe839;" d="M1030 750c-40 45-93 71-148 76-6 0-12 0-17 0-60 0-116-23-159-64-42-42-66-98-67-157-1-36 23-67 57-72 4-1 8-2 12-2 38 0 70 32 70 70 0 48 39 87 87 87 6 0 11-1 17-2 34-6 63-35 68-70 7-35-9-70-39-89-50-32-171-90-221-114-47-21-78-65-82-113 0-4 0-8 0-12v-329c0-47 38-85 84-85h313c47 0 85 38 85 85v636c0 56-21 111-60 155z m16-791c0-22-18-40-40-40h-313c-23 0-41 18-41 40v329c0 2 1 5 1 8 2 32 24 62 56 77 63 30 176 84 226 116 46 29 69 82 60 135-10 53-51 96-104 106-9 1-18 2-26 2-73 0-132-59-132-132 0-13-11-24-25-24-1 0-3 0-5 0-13 2-20 16-19 28 2 98 83 177 181 177 4 0 9 0 14 0 90-7 167-92 167-186v-636z m-119 272h-156c-13 0-23-10-23-22s10-22 23-22h156c13 0 23 10 23 22s-10 22-23 22z m-62-62c-13 0-23-10-23-22s10-23 23-23h78c12 0 22 10 22 23s-10 22-22 22h-78z m-63-45c12 0 22 10 22 23s-10 22-22 22h-47c-12 0-22-10-22-22s10-23 22-23h47z m47-18h-78c-13 0-23-10-23-22s10-22 23-22h78c12 0 22 10 22 22s-10 22-22 22z m78 0h-16c-12 0-22-10-22-22s10-22 22-22h16c13 0 23 10 23 22s-10 22-23 22z m-78 217c-99 0-179-80-179-179s80-179 179-179 179 80 179 179-80 179-179 179z m0-313c-74 0-134 60-134 134s60 134 134 134 134-60 134-134-60-134-134-134z" horiz-adv-x="1714" />

<glyph glyph-name="travel-69" unicode="&#xe83a;" d="M1326 261l-414 288c-10 7-21 12-32 15v41c55 10 96 59 96 117 0 66-53 119-119 119s-119-53-119-119c0-12 10-22 22-22 13 0 23 10 23 22 0 41 33 75 74 75 41 0 75-34 75-75s-34-74-75-74c-12 0-22-10-22-23v-61c-12-3-23-8-33-14l-414-289c-19-13-27-36-20-58 7-23 27-37 50-37h109v-155-97c0-31 25-55 55-55h453c30 0 55 24 55 55v10h74c30 0 55 24 55 54v188h77c24 0 43 14 50 36 7 23 0 45-20 59z m-152-50h-83c3 17 15 30 31 35 0 0 1 0 1 0 0 0 0 0 1 0 2 0 4 1 6 1 0 0 0 0 0 0 0 0 1 0 1 0 0 0 1 0 1 0 1 0 2 0 3-1 20-1 36-16 39-35z m-129-6v-3-169h-473v172c0 23 19 42 43 42h441c-7-13-11-27-11-42z m0-292c0-5-4-10-10-10h-453c-5 0-10 5-10 10v75h473v-43-32z m120 55h-75v42 156h85v-188c0-6-5-10-10-10z m139 248c-1-3-3-5-7-5h-78c0 0 0 0 0 1 0 1 0 1 0 2 0 1-1 2-1 2 0 1 0 2 0 3 0 0 0 1 0 1 0 1-1 2-1 3 0 0 0 1 0 1 0 1-1 2-1 3 0 0 0 1 0 1 0 1-1 2-1 3 0 0 0 1 0 1 0 1-1 2-1 3 0 0 0 0 0 1-3 7-7 14-11 20 0 0-1 0-1 0 0 1-1 2-2 3 0 0 0 0 0 1-1 0-2 1-2 2 0 0-1 0-1 1-1 0-1 1-2 2 0 0 0 1-1 1 0 0-1 1-2 2 0 0 0 0-1 1 0 0-1 1-2 2 0 0 0 0-1 0 0 1-1 2-2 2 0 0 0 1-1 1 0 0-1 1-2 2 0 0-1 0-1 0-1 1-2 1-2 2-1 0-1 0-2 1 0 0-1 1-2 1 0 0-1 0-1 1-1 0-2 1-2 1-1 0-1 0-2 1-1 0-1 0-2 1-1 0-1 0-1 0-1 1-2 1-3 1 0 1-1 1-1 1-1 0-2 1-3 1 0 0-1 0-1 0-1 1-2 1-3 1 0 0-1 1-1 1-1 0-2 0-3 0 0 1-1 1-2 1 0 0-1 0-2 0-1 0-1 0-2 1-1 0-1 0-2 0-1 0-2 0-2 0-1 0-2 0-2 0-1 0-2 0-3 0-1 0-1 1-2 1-1 0-3 0-4 0 0 0 0 0 0 0h0-517 0c-2 0-3 0-5 0 0 0-1 0-1-1-1 0-2 0-3 0-1 0-1 0-2 0-1 0-2 0-3 0 0 0-1 0-1-1-1 0-2 0-3 0 0 0-1 0-1 0-1-1-2-1-3-1 0 0-1 0-2-1 0 0-1 0-2 0-1 0-1-1-2-1 0 0-1 0-2-1 0 0-1 0-2 0 0 0-1-1-2-1 0 0-1 0-1-1-1 0-2 0-3-1 0 0-1 0-1 0-1-1-2-1-2-2-1 0-1 0-2 0-1-1-1-1-2-2 0 0-1 0-1-1-1 0-2 0-3-1 0 0 0 0-1-1-1 0-1-1-2-1 0 0-1-1-1-1-1-1-1-1-2-2 0 0-1 0-1-1-1 0-2-1-2-1-1-1-1-1-1-1-1-1-2-2-2-2-1-1-1-1-1-1-1-1-2-1-2-2-1-1-1-1-1-1-1-1-1-2-2-2 0-1 0-1-1-1-1-1-1-2-2-3 0 0 0 0 0-1-1 0-2-1-2-2 0 0-1-1-1-1 0-1-1-2-2-3 0 0 0 0 0 0-2-4-4-8-5-12 0 0-1 0-1 0 0-1-1-2-1-3 0-1 0-1 0-1-1-1-1-2-1-3-1-1-1-1-1-1 0-1 0-2 0-3-1-1-1-1-1-2 0-1 0-2 0-2 0-1 0-2-1-2 0-1 0-2 0-3 0 0 0-1 0-1-1-1-1-2-1-3 0-1 0-1 0-2 0 0 0-1 0-1h-110c-5 0-7 2-7 5-1 2-1 5 3 8l414 289c9 6 19 9 29 9 0 0 0 0 0 0 0 0 0 0 1 0 10 0 20-3 29-9l414-289c4-3 4-6 3-8z" horiz-adv-x="1714" />

<glyph glyph-name="umbrella" unicode="&#xe83b;" d="M1252 14c-33 0-59 22-59 50 0 11-9 20-20 20-11 0-20-9-20-20 0-28-26-50-59-50s-59 22-59 50c0 11-9 20-20 20-11 0-20-9-20-20 0-28-26-50-59-50-33 0-58 22-58 50 0 11-9 20-20 20-12 0-20-9-20-20 0-28-27-50-59-50-33 0-59 22-59 50 0 11-9 20-20 20-11 0-20-9-20-20 0-28-26-50-59-50-33 0-59 22-59 50 0 11-9 20-20 20-11 0-20-9-20-20 0-28-26-50-59-50-11 0-20-9-20-20s9-20 20-20c32 0 61 14 79 36 18-22 47-36 79-36 32 0 61 14 79 36 18-22 47-36 79-36s61 14 79 36c18-22 47-36 78-36 32 0 62 14 79 36 18-22 47-36 79-36s61 14 79 36c18-22 47-36 79-36 11 0 20 9 20 20s-9 20-20 20z m-739 428c0-1 0-3 1-4 3-13 15-21 27-21 2 0 5 0 7 1l252 69 74-272c-48-7-95-28-132-62-8-8-9-20-1-28 4-4 9-6 15-6 5 0 10 2 14 5 78 73 205 73 283 0 8-8 21-7 28 1 8 8 7 21-1 28-19 18-41 32-65 43 47 32 114 28 156-12 4-4 9-5 14-5s11 2 15 6c8 8 7 21-1 28-62 58-164 58-226 0-1-1-1-1-2-2-18 4-37 7-56 7l-76 279 252 69c15 4 24 20 20 35 0 1-1 3-1 4l-18 36c-11 35-63 60-161 78-115 21-232-11-320-88-76-66-107-113-99-149l1-40z m122 160c63 55 142 84 224 84 21 0 42-2 62-6 117-21 129-47 131-51 0-1 1-3 1-4l12-23-513-141-2 26c0 1 0 3-1 4-1 5-3 33 86 111z" horiz-adv-x="1714" />

<glyph glyph-name="camping" unicode="&#xe83c;" d="M797 141l-16 6 13 5c33 12 50 48 38 80l-22 61c-12 33-48 50-80 38l-224-80c-2-1-4-2-5-3l-235 84c-31 11-66-5-77-36l-24-66c-5-15-5-31 2-46s19-25 34-31l16-6-13-5c-33-12-50-48-38-80l22-61c9-26 33-42 59-42 7 0 14 1 21 4l227 81c1 0 2 1 3 1l234-84c7-2 13-4 20-4 9 0 17 2 26 6 14 7 25 19 31 34l24 66c12 32-4 67-36 78z m-53 152c12 4 25-2 29-14l22-61c4-12-2-25-14-29l-59-21-163 59 185 66z m-488-292c-12-4-25 2-29 14l-22 61c-2 6-2 12 1 18s7 10 13 12l59 21 163-59-185-67z m540 77l-24-66c-2-5-5-9-10-11-5-2-10-3-15-1l-531 190c-5 2-9 5-11 10-2 5-3 10-1 15l24 66c2 5 5 9 10 11 3 1 6 2 9 2 2 0 5 0 7-1l531-190c9-3 15-15 11-25z m-296 194c102 0 185 84 185 188 0 98-153 258-171 276-8 8-21 8-29 0-17-18-171-178-171-276 1-104 84-188 186-188z m0 45c-52 0-95 43-95 95 0 35 54 89 95 120 41-31 95-85 95-120 0-53-43-95-95-95z m0 375c51-55 145-170 145-233 0-19-4-38-10-54 0 2 0 4 0 7 0 72-111 152-123 161-7 5-16 5-23 0-13-9-123-90-123-161 0-2 0-4 0-7-7 17-10 35-10 54-1 63 93 178 144 233z" horiz-adv-x="1000" />

<glyph glyph-name="diving-mask" unicode="&#xe83d;" d="M250 204c70 0 130 40 160 98 30-58 90-98 160-98h10c77 0 140 63 140 140v10c0 99-81 180-180 180h-130-130c-99 0-180-81-180-180v-10c0-77 63-140 140-140h10z m430 150v-10c0-55-45-100-100-100h-10c-77 0-140 63-140 140v110h110c77 0 140-63 140-140z m-540-10v10c0 77 63 140 140 140h110v-110c0-77-63-140-140-140h-10c-55 0-100 45-100 100z m740 380c-62 0-113-51-113-113v-290c0-125-101-226-226-226h-27c-4 60-54 107-115 107s-110-47-115-107h-94c-11 0-20-9-20-20s9-20 20-20h100c14-48 58-83 110-83s96 35 110 83h31c147 0 266 120 266 266v290c0 41 33 73 73 73 11 0 20 9 20 20s-9 20-20 20z m-480-713c-41 0-75 34-75 75s34 75 75 75 75-34 75-75-34-75-75-75z" horiz-adv-x="1000" />

<glyph glyph-name="lounge" unicode="&#xe83e;" d="M841 417c0 0 0 0 0 0-21 0-39-8-54-22l-203-201h-425c-42 0-76-34-76-76s34-76 76-76h42l-41-31c-9-7-11-19-4-28 4-5 10-8 16-8 4 0 8 1 12 4l86 63h233l86-63c4-3 8-4 12-4 6 0 12 3 16 8 7 9 5 21-4 28l-43 31h45c20 0 39 8 53 22l226 224c30 29 30 78 1 107-14 14-33 22-54 22z m25-101l-226-224c-7-7-16-10-25-10h-456c-20 0-36 16-36 36 0 20 16 36 36 36h441l216 214c7 7 15 11 25 10 10 0 19-4 25-11 14-14 14-37 0-51z m-376 111c50 0 90 40 90 90s-40 90-90 90-90-40-90-90 40-90 90-90z m0 140c28 0 50-22 50-50s-22-50-50-50-50 22-50 50 22 50 50 50z m-20-188v-49c0-11 9-20 20-20s20 9 20 20v49c0 11-9 20-20 20s-20-9-20-20z m20 257c11 0 20 9 20 20v49c0 11-9 20-20 20s-20-9-20-20v-49c0-11 9-20 20-20z m-188-139h49c11 0 20 9 20 20s-9 20-20 20h-49c-11 0-20-9-20-20s9-20 20-20z m307 20c0-11 9-20 20-20h49c11 0 20 9 20 20s-9 20-20 20h-49c-11 0-20-8-20-20z m-231-83l-35-35c-8-8-8-20 0-28 4-4 9-6 14-6s10 2 14 6l35 35c8 8 8 20 0 28s-20 7-28 0z m210 161c5 0 10 2 14 6l35 35c8 8 8 20 0 28-8 8-20 8-28 0l-35-34c-8-8-8-20 0-28 4-5 9-7 14-7z m-210 6c4-4 9-6 14-6s10 2 14 6c8 8 8 20 0 28l-35 35c-8 8-20 8-28 0-8-8-8-20 0-28l35-35z m196-167c-8-8-8-20 0-28l35-35c4-4 9-6 14-6s10 2 14 6c8 8 8 20 0 28l-35 35c-8 7-20 7-28 0z" horiz-adv-x="1000" />

<glyph glyph-name="lounge2" unicode="&#xe83f;" d="M841 397c0 0 0 0 0 0-21 0-39-8-54-22l-203-202h-64v306h249c11 0 20 9 20 20v7c0 132-108 240-240 240h-99c-132 0-240-108-240-240v-7c0-11 9-20 20-20h250v-306h-321c-42 0-76-34-76-76s34-76 76-76h42l-41-30c-9-7-11-19-4-28 4-5 10-8 16-8 4 0 8 1 12 4l86 63h233l86-63c4-3 8-4 12-4 6 0 12 3 16 8 7 9 5 21-4 28l-43 30h45c20 0 39 8 53 22l226 224c30 29 30 78 1 107-14 15-33 23-54 23z m-390 309h99c106 0 193-83 200-187h-499c7 104 94 187 200 187z m415-410l-226-224c-7-7-16-10-25-10h-456c-20 0-36 16-36 36 0 20 16 36 36 36h441l216 214c7 7 16 10 25 10 0 0 0 0 0 0 10 0 19-4 25-11 14-15 14-38 0-51z" horiz-adv-x="1000" />

<glyph glyph-name="luggage" unicode="&#xe840;" d="M815 585h-179v51c0 39-31 70-70 70h-132c-39 0-70-31-70-70v-51h-179c-55 0-100-45-100-100v-390c0-55 45-100 100-100h630c55 0 100 45 100 100v390c0 55-45 100-100 100z m-115-40v-510h-400v510h400z m-296 90c0 17 13 30 30 30h133c17 0 30-13 30-30v-51h-193v51z m-279-540v390c0 33 27 60 60 60h75v-510h-75c-33 0-60 26-60 60z m750 0c0-33-27-60-60-60h-75v510h75c33 0 60-27 60-60v-390z" horiz-adv-x="1000" />

<glyph glyph-name="luggage2" unicode="&#xe841;" d="M300 54c-18 18-48 18-66 0-18-18-18-48 0-66 18-18 48-18 66 0 18 18 18 48 0 66z m-53-53c-11 11-11 29 0 40 11 11 29 11 40 0 11-11 11-29 0-40-11-11-29-11-40 0z m26 79c-15 0-30 6-41 17l-165 166c-11 10-17 25-17 40 0 16 6 30 17 41l365 365c11 11 26 17 41 17 15 0 30-6 41-17l165-165c11-11 17-26 17-41 0-15-6-30-17-41l-365-365c-11-11-26-17-41-17z m200 617c-8 0-15-3-20-8l-366-365c-5-6-8-13-8-21 0-7 3-15 8-20l166-165c11-11 30-11 40 0l366 365c5 5 8 12 8 20s-3 15-8 20l-166 166c-5 5-12 8-20 8z m-62-567c-4 0-8 1-11 4-5 5-5 15 0 20l525 525c6 6 15 6 21 0 5-6 5-15 0-20l-525-525c-3-3-7-4-10-4z m429 499c-4 0-8 1-11 4-5 6-5 15 0 21l61 60c6 6 15 6 20 0 6-5 6-15 0-20l-60-61c-3-3-7-4-10-4z" horiz-adv-x="1000" />

<glyph glyph-name="plane" unicode="&#xe842;" d="M151 332c3-7 9-11 16-12l266-27-148-159c-5-6-7-14-4-22s10-12 18-12h123c5 0 9 2 12 4l211 169 204-3c50 0 90 40 90 90 0 50-40 90-90 90l-205 4-181 142c-3 3-8 4-12 4h-102c-8 0-15-4-18-12-3-7-2-15 3-21l95-114-170-3-59 100c-4 6-10 10-17 10h-102c-7 0-13-3-17-9-4-6-4-13-2-19l89-200z m241 228h52l134-104-10 0c-1 0-1 0-2 0l-86-2-88 106z m-220-40l59-100c4-6 11-10 18-10l320 6c0 0 1 0 1 0l280-6c28 0 50-22 50-50s-22-50-50-50l-210 3c0 0 0 0 0 0 0 0-1 0-1 0-1 0-1 0-2 0-1 0-1 0-2 0-1 0-1 0-2-1-1 0-1 0-2-1-1 0-1-1-2-1-1 0-1-1-2-1 0 0 0 0-1 0l-211-169h-70l145 155c0 0 0 0 0 1 1 1 1 1 1 2 0 0 1 1 1 1 0 1 1 1 1 2 0 0 0 1 1 2 0 1 0 1 1 2 0 1 0 1 0 2 0 0 0 0 0 1 0 0 0 1 0 1 0 1 0 1 0 2 0 1 0 1 0 2 0 1 0 1 0 2 0 1 0 1-1 2 0 1 0 1-1 2 0 1-1 1-1 2 0 1-1 1-1 2 0 1-1 1-1 2 0 0-1 1-1 1 0 0 0 0 0 0-1 0-1 1-2 1 0 0-1 1-2 1-1 0-1 1-2 1-1 0-1 1-2 1-1 0-1 0-2 0-1 0-1 0-2 0 0 0 0 0-1 0l-295 30-70 160h61z" horiz-adv-x="1000" />

<glyph glyph-name="plane-arrivals" unicode="&#xe843;" d="M1263 279c-12 21-31 35-53 42l-197 56-140 184c-3 4-7 6-12 7l-98 26c-7 2-15-1-20-6-5-7-6-14-3-22l63-135-165 42-31 112c-2 6-7 11-14 13l-98 27c-7 1-14 0-19-4-5-5-7-11-6-18l33-217c2-6 7-13 13-16l250-95-185-115c-6-4-10-12-8-20 1-8 7-14 15-16l118-32c2 0 4-1 5-1 4 0 5 1 9 2l248 108 194-55c8-1 16-3 23-3 16 0 31 4 45 12 21 12 36 31 42 55 6 24 3 48-9 69z m-468 266l50-14 103-135-10 2c-1 0-1 0-2 0l-83 22-58 125z m438-324c-3-13-12-24-23-30-12-7-25-8-38-5l-202 57h-1c-1 0-1 0-2 0s-1 0-2 0-1 0-2 0-1 0-2 0-1 0-1 0-2 0-2-2h-2l-246-108-67 18 180 113c0 0 1 0 1 1 1 1 2 2 3 3l1 1c1 1 2 3 3 5v1c0 1 0 1 1 2 0 1 0 1 0 2s0 1 0 2 0 1 0 2 0 1 0 2c0 1 0 1 0 2s0 1-1 2c0 1-1 1-1 2 0 0 0 1-1 1 0 1-1 1-1 2l-2 1-1 1c0 0-1 1-2 1 0 0-1 1-2 1s-1 1-1 1l-279 105-28 175 58-16 31-112c2-7 7-12 14-14l311-77h1l269-78c13-3 24-12 30-23 8-13 10-25 6-38z" horiz-adv-x="1714" />

<glyph glyph-name="plane-liftof" unicode="&#xe844;" d="M1238 541c-11 22-29 39-52 46-23 8-47 6-68-4l-186-86-226 47c-4 1-9 0-13-2l-91-43c-7-3-11-11-11-18 0-8 5-15 12-18l135-61-151-77-97 64c-6 4-13 4-20 1l-92-45c-6-3-10-9-11-16s2-13 7-18l167-141c4-3 8-5 13-5 2 0 5 0 7 1l251 92-64-209c-2-8 0-16 6-21 4-3 8-5 13-5 3 0 6 1 9 2l111 57c4 2 7 5 9 9l116 244 184 86c45 22 63 76 42 120z m-580-59l46 23 166-35-9-4c-1 0-1-1-1-1l-77-39-125 56z m521-25l-190-89h-1c-1 0-1-1-2-1s-1-1-2-1l-1-1-1-1-1-1c0-2-1-2-1-2 0 0 0 0 0-1l-117-245-63-31 62 203c0 0 0 0 0 1s0 1 0 2 0 1 0 2 0 1 0 2 0 1 0 2c0 1 0 1 0 2s0 2-1 2c0 0 0 1-1 1 0 1-1 1-1 2s-1 1-1 2-1 1-1 2l-1 1-1 1c-1 0-1 1-2 1s-1 1-2 1-1 1-2 1c0 0-1 0-1 1 0 0 0 0-1 0-1 0-1 0-2 0-1 0-1 0-2 0-1 0-1 0-2 0s-1 0-2 0-1 0-2 0-1 0-2 0c0 0 0 0-1 0l-276-104-135 114 54 26 97-64c6-4 14-4 20-1l286 145c0 0 0 0 1 0l254 117c12 6 26 7 38 2 13-4 23-13 29-25 12-24 2-54-23-66z" horiz-adv-x="1714" />

<glyph glyph-name="sailboat" unicode="&#xe845;" d="M453 86c33 0 62 16 81 41 18-25 48-41 81-41s62 16 81 41c18-25 48-41 81-41s62 16 81 41c18-25 48-41 81-41 33 0 62 16 81 41 18-25 48-41 81-41s62 16 81 41c18-25 48-41 81-41 11 0 20 9 20 20s-11 21-22 21c-33 0-61 27-61 61 0 12-9 20-20 20-11 0-20-8-20-20 0-33-27-61-61-61-34 0-61 27-61 61 0 12-9 20-20 20-11 0-20-8-20-20 0-33-27-61-61-61-34 0-59 27-59 60 0 11-9 20-20 20s-20-9-20-20c0-33-27-61-61-61s-61 27-61 61c0 11-9 20-20 20s-20-9-20-20c0-33-27-61-61-61-34 0-61 27-61 61 0 11-9 20-20 20s-20-9-20-20c0-33-27-61-61-61-11 0-20-9-20-20s8-20 20-20z m808-109c-33 0-61 27-61 61 0 11-9 20-20 20-12 0-20-9-20-20 0-33-27-61-62-61-33 0-61 27-61 61 0 11-9 20-20 20-11 0-20-9-20-20 0-33-27-61-61-61-34 0-59 27-59 60 0 11-9 20-20 20s-20-9-20-20c0-33-27-61-61-61s-61 27-61 61c0 11-9 20-20 20s-20-9-20-20c0-33-27-61-61-61-34 0-61 27-61 61 0 11-9 20-20 20s-20-9-20-20c0-33-27-61-61-61-11 0-20-9-20-20s9-20 20-20c33 0 62 16 81 41 18-25 48-41 81-41s62 16 81 41c18-25 48-41 81-41s62 16 81 41c18-25 48-41 81-41 33 0 62 16 82 41 18-25 48-41 81-41s62 16 81 41c18-25 48-41 81-41 11 0 20 9 20 20s-12 21-22 21z m-93 426h-325v110h266c8 0 16 5 19 13 3 8 0 17-7 22l-285 237c-6 5-14 6-21 3-8-3-12-10-12-18v-368h-255c-12 0-20-9-20-20v-11c0-65 23-101 53-141 7-9 20-11 29-4s11 19 3 28c-30 39-43 66-46 108h580c-2-45-18-73-49-112-7-9-5-21 3-28 4-3 9-4 12-4 7 0 12 3 17 8 38 47 58 84 58 145v12c0 11-9 20-20 20z m-325 324l211-174h-211v174z" horiz-adv-x="1714" />

<glyph glyph-name="travel-01" unicode="&#xe846;" d="M1193 539h-68v143c0 54-43 97-97 97h-360c-54 0-97-43-97-97v-143h-67c-48 0-86-38-86-86v-448c0-47 38-86 86-86h689c48 0 86 39 86 86v448c0 48-38 86-86 86z m-212-234v31h184v-31h-184z m123-30v-51h-62v51h62z m-86 264h-339v134h338v-134z m86-31v-143h-62v143h62z m-502 176c0 37 29 66 66 66h359c37 0 66-31 66-66v-142h-46v142c0 11-10 20-20 20h-359c-10 0-20-9-20-20v-142h-46v142z m-6-176h62v-143h-62v143z m123-172v-31h-185v31h185z m-61-61v-51h-62v51h62z m590-270c0-30-24-55-55-55h-689c-31 0-56 25-56 55v53h800v-53z m0 83h-800v365c0 31 25 55 56 55h61v-143h-46c-8 0-15-6-15-15v-62c0-7 7-15 15-15h46v-66c0-8 8-15 16-15h92c9 0 15 7 15 15v66h46c10 0 16 8 16 15v62c0 9-6 15-16 15h-46v143h323v-143h-46c-7 0-15-6-15-15v-62c0-7 8-15 15-15h46v-66c0-8 8-15 16-15h92c9 0 15 7 15 15v66h46c10 0 16 8 16 15v62c0 9-6 15-16 15h-46v143h59c31 0 55-24 55-55v-365z" horiz-adv-x="1714" />

<glyph glyph-name="travel-02" unicode="&#xe847;" d="M1251 781h-831c-7 0-15-8-15-16v-830c0-8 8-16 15-16h831c8 0 15 8 15 16v830c0 8-7 16-15 16z m-688-31h377v-94h-150l26 26c6 6 6 16 0 22-6 6-16 6-22 0l-43-42-41 42c-7 6-16 6-22 0-6-6-6-16 0-22l42-41-42-42c-6-6-6-15 0-22 3-3 6-4 11-4 4 0 7 1 10 4l42 42 42-42c3-3 7-4 10-4 5 0 8 1 11 4 6 6 6 16 0 22l-26 26h151v-94h-376v219z m673-800h-800v800h97v-235c0-8 7-16 15-16h408c7 0 15 8 15 16v109h86c43 0 80-35 80-78v-5c0-42-34-74-74-74-44 0-81-37-81-82s37-81 81-81h22c29 0 52-23 52-53 0-29-24-52-52-52h-103c-57 0-103-46-103-103 0-40-33-72-73-72h-153l117 252c0 0 0 2 1 2 5 14 6 27 6 41 0 82-66 148-149 148s-148-66-148-148c0-14 2-27 6-41 0 0 0-2 2-2l128-274c3-6 7-9 14-9h178c57 0 103 46 103 103 0 40 32 72 72 72h102c46 0 83 37 83 83 0 46-37 83-83 83h-22c-27 0-50 23-50 51 0 28 23 51 50 51 59 0 105 47 105 104v5c0 60-49 109-111 109h-86v96h265v-800z m-608 92l-114 243c-3 11-4 22-4 33 0 64 52 117 116 117 65 0 119-53 119-117 0-11-2-22-5-33l-112-243z m0 345c-38 0-69-31-69-69 0-39 31-70 69-70s69 31 69 70c0 38-31 69-69 69z m0-106c-22 0-38 17-38 38 0 22 17 39 38 39s38-17 38-39c0-21-16-38-38-38z" horiz-adv-x="1714" />

<glyph glyph-name="travel-03" unicode="&#xe848;" d="M1264 278l-98 98h66c6 0 12 3 14 9 3 6 1 13-3 17l-113 113h63c7 0 13 4 14 9 3 6 2 12-3 17l-98 100h31c6 0 12 3 14 9 3 6 1 13-3 17l-110 109c-6 7-15 7-21 0l-110-109c-4-5-6-11-3-17 2-6 8-9 14-9h31l-77-79-19 19c-6 6-15 6-21 0l-20-20-79 78h31c6 0 12 3 14 10 3 6 2 12-3 17l-109 109c-6 6-16 6-22 0l-109-109c-5-5-6-11-3-17 3-6 8-10 14-10h32l-102-98c-4-5-6-11-3-17s8-9 14-9h63l-112-113c-5-4-6-10-3-17s8-9 14-9h66l-100-101c-5-5-6-11-3-17 3-7 8-10 14-10h160v-120c0-9 6-15 15-15h31l-32-32c-5-5-7-11-4-17 2-6 8-10 14-10h160v-120c0-9 8-15 16-15h107c10 0 16 6 16 15v120h160c6 0 12 5 14 10 3 6 1 12-3 17l-33 32h31c8 0 15 6 15 15v120h160c8 0 16 6 16 16 1 6 0 11-5 14z m-803 3l0 0 0 0 0 0 100 100c5 4 6 10 3 17-3 6-8 9-14 9h-66l112 112c5 5 7 11 4 17-4 6-8 10-14 10h-63l100 100c4 4 6 10 3 17-2 6-8 9-14 9h-31l72 72 73-72h-33c-6 0-12-5-14-9-1-7-1-13 3-17l105-105-68-68c-4-4-6-10-3-17 3-6 8-9 14-9h31l-98-100c-5-5-7-11-3-17 3-6 7-9 13-9h63l-40-40h-235z m155-137v105h50l-42-42c-4-5-6-11-3-17s8-9 14-9h66l-8-8-30-29h-47z m262-194h-77v105h77v-105z m-231 135l43 43 17 17 16 16 24 24c5 5 6 11 3 17-3 6-7 10-14 10h-66l39 37v1l15 14v2l15 15 45 45c5 4 6 10 3 17-3 6-8 9-14 9h-63l100 100c5 4 6 11 3 17s-8 9-14 9h-31l73 72 72-72h-30c-6 0-13-3-14-10-3-6-2-12 3-17l100-100h-63c-6 0-13-3-14-9-3-6-2-12 3-17l45-44 15-16 31-30 21-22h-66c-6 0-12-3-14-9-3-6-1-13 3-17l25-25 15-15 19-19 43-43h-388z m419 59h-2-46l-31 31-6 6h66c8 0 16 6 16 15 0 5-3 9-7 12l-40 40h50v-104z m-82 137l-40 40h63c8 0 16 6 16 15 0 5-3 9-7 12l-96 97h30c10 0 16 8 16 16 0 4-3 9-6 12l-68 68 104 104c5 5 7 11 4 17-4 6-8 10-14 10h-31l72 72 73-72h-31c-6 0-13-5-14-10-3-6-2-12 3-17l100-100h-63c-6 0-12-3-14-9-3-6-2-12 3-17l112-112h-66c-6 0-12-5-14-9-3-7-1-13 3-17l100-100h-235z" horiz-adv-x="1714" />

<glyph glyph-name="travel-04" unicode="&#xe849;" d="M857 555c-127 0-231-103-231-231s104-231 231-231 231 103 231 231-103 231-231 231z m0-431c-111 0-200 89-200 200s89 200 200 200 200-89 200-200-89-200-200-200z m233 652c-48 0-94-18-128-49-5-5-6-9-5-16 2-6 5-9 11-10 51-16 97-39 137-71l-23-31c-62 50-139 80-223 80-85 0-163-30-225-81l-23 30c40 33 86 57 135 71 4 0 8 3 10 6 4 6 3 16-3 20-36 33-82 50-128 50-105 1-191-85-191-190 0-40 13-78 36-110 1-2 3-4 4-5l2-2c2-1 5-1 6-1 6 0 12 3 14 9 22 51 52 95 91 131l24-31c-66-65-107-154-107-254 0-97 38-183 101-248l-98-127c-5-5-3-16 3-20 3-2 6-3 9-3 5 0 9 1 12 6l97 124c62-52 143-84 231-84 88 0 168 32 231 84l97-124c3-5 8-6 12-6 3 0 6 1 9 3 7 4 8 15 3 21l-98 128c63 63 101 151 101 248 0 100-41 189-108 254l24 30c38-35 69-81 90-130 2-3 3-5 5-6 3-2 6-3 9-3 5 0 9 3 12 6 24 32 36 70 36 110-2 105-88 191-192 191z m-610-260c-10 22-15 45-15 69 0 88 72 160 160 160 31 0 60-9 86-24-100-37-181-109-231-205z m700-192c0-178-144-323-323-323s-323 145-323 323 145 323 323 323 323-145 323-323z m54 192c-48 96-131 168-231 205 26 15 56 24 86 24 88 0 160-72 160-160 1-24-4-47-15-69z m-275-177h-86v145c0 9-6 15-16 15s-15-6-15-15v-160c0-9 6-15 15-15h102c9 0 15 6 15 15 0 9-6 15-15 15z" horiz-adv-x="1714" />

<glyph glyph-name="travel-05" unicode="&#xe84a;" d="M1165 632v116c0 10-6 16-15 16h-585c-9 0-15-6-15-16v-117l-124-407c0-2 0-3 0-5v-184c0-10 7-16 16-16h61v-103c0-9 7-15 16-15h77c9 0 15 6 15 15v103h492v-103c0-9 7-15 16-15h77c9 0 15 6 15 15v103h62c9 0 15 6 15 16v184c0 3 0 5 0 6l-123 407z m-585 101h554v-88h-35v42c0 9-6 15-16 15h-190c-10 0-16-6-16-15v-42h-38v42c0 9-6 15-16 15h-192c-9 0-15-6-15-15v-42h-36v88z m490-61v-85h-162v85h162z m-262 0v-85h-162v85h162z m-232-57h38v-43c0-8 6-16 15-16h193c9 0 15 8 15 16v43h38v-43c0-8 6-16 16-16h192c9 0 15 8 15 16v43h39l118-391c-6 2-10 6-15 9-11 8-25 19-51 19s-40-11-51-19c-9-7-17-12-32-12-15 0-23 5-32 12-11 8-25 19-51 19-26 0-40-11-51-19-9-7-17-12-32-12-15 0-23 5-32 12-11 8-25 19-51 19s-40-11-51-19c-9-7-17-12-32-12-15 0-23 5-32 12-11 8-25 19-51 19-26 0-40-11-51-19-9-7-17-12-32-12-15 0-23 5-32 12-11 8-25 19-51 19-26 0-40-11-51-19-6-4-9-7-15-9l117 391z m4-683h-46v87h46v-87z m600 0h-46v87h46v-87z m77 120h-800v140c17 3 26 10 36 17 9 7 17 12 32 12 15 0 23-5 32-12 11-8 25-19 51-19 26 0 40 11 51 19 9 7 17 12 32 12 15 0 23-5 32-12 11-8 25-19 51-19 26 0 40 11 51 19 9 7 17 12 32 12 15 0 23-5 32-12 11-8 25-19 51-19 26 0 40 11 51 19 9 7 17 12 32 12 15 0 23-5 32-12 11-8 25-19 51-19s40 11 51 19c9 7 17 12 32 12 16 0 23-5 32-12 10-6 19-14 36-17v-140l0 0 0 0z" horiz-adv-x="1714" />

<glyph glyph-name="travel-06" unicode="&#xe84b;" d="M1282 781c-9 0-16-6-16-16v-161h-510v66c0 43-36 77-77 77h-82c-43 0-77-34-77-77v-66h-54v161c0 10-6 16-15 16-9 0-15-6-15-16v-830c0-10 6-16 15-16 9 0 15 6 15 16v112h800v-112c0-10 6-16 16-16 9 0 15 6 15 16v830c0 10-6 16-15 16z m-731-111c0 26 20 46 46 46h82c26 0 46-20 46-46v-66h-174v66z m715-592h-800v81h800v-81z m-715 112v66c0 26 20 46 46 46h82c26 0 46-20 46-46v-66h-174z m715 0h-510v66c0 43-36 77-77 77h-82c-43 0-77-34-77-77v-66h-54v272h800v-272z m0 303h-800v82h800v-82z" horiz-adv-x="1714" />

<glyph glyph-name="travel-07" unicode="&#xe84c;" d="M1283 621h-12v71c0 9-6 15-15 15h-71c-9 0-15-6-15-15v-71h-14c-8 0-16-6-16-15v-36h-106c-9 0-15-6-15-15v-71c0-8 6-15 15-15h106v-485c0-9 8-15 16-15h127c8 0 16 6 16 15v621c0 10-8 16-16 16z m-143-120h-90v40h90v-40z m59 177h40v-56h-40v56z m69-677h-97v589h97v-589z m-309 571h-363v35c0 9-8 15-16 15h-12v71c0 9-8 15-15 15h-73c-9 0-15-6-15-15v-71h-12c-8 0-16-6-16-15v-620c0-9 8-15 16-15h127c8 0 16 6 16 15v483h363c9 0 15 8 15 15v71c0 8-6 16-15 16z m-463 106h40v-56h-40v56z m69-677h-97v589h97v-589z m378 500h-347v40h347v-40z" horiz-adv-x="1714" />

</font>
</defs>
</svg>
